  0
SECTION
  2
HEADER
  9
$ACADVER
  1
AC1027
  9
$ACADMAINTVER
 70
     8
  9
$DWGCODEPAGE
  3
ANSI_1252
  9
$REQUIREDVERSIONS
160
                 0
  9
$COMMENTS
  1
File was created by PointLineCAD
  9
$INSBASE
 10
0.0
 20
0.0
 30
0.0
  9
$EXTMIN
 10
-55657.50082397461
 20
-9920.02099609375
 30
0.0
  9
$EXTMAX
 10
2626.1875
 20
-3439.62841796875
 30
0.0
  9
$LIMMIN
 10
0.0
 20
0.0
  9
$LIMMAX
 10
420.0
 20
297.0
  9
$ORTHOMODE
 70
     0
  9
$REGENMODE
 70
     1
  9
$FILLMODE
 70
     1
  9
$QTEXTMODE
 70
     0
  9
$MIRRTEXT
 70
     1
  9
$LTSCALE
 40
0.5
  9
$ATTMODE
 70
     1
  9
$TEXTSIZE
 40
2.5
  9
$TRACEWID
 40
1.0
  9
$TEXTSTYLE
  7
Standard
  9
$CLAYER
  8
L
  9
$CELTYPE
  6
ByLayer
  9
$CECOLOR
 62
   256
  9
$CELTSCALE
 40
1.0
  9
$DISPSILH
 70
     0
  9
$DIMSCALE
 40
1.0
  9
$DIMASZ
 40
2.5
  9
$DIMEXO
 40
0.625
  9
$DIMDLI
 40
3.75
  9
$DIMRND
 40
0.0
  9
$DIMDLE
 40
0.0
  9
$DIMEXE
 40
1.25
  9
$DIMTP
 40
0.0
  9
$DIMTM
 40
0.0
  9
$DIMTXT
 40
2.5
  9
$DIMCEN
 40
2.5
  9
$DIMTSZ
 40
0.0
  9
$DIMTOL
 70
     0
  9
$DIMLIM
 70
     0
  9
$DIMTIH
 70
     0
  9
$DIMTOH
 70
     0
  9
$DIMSE1
 70
     0
  9
$DIMSE2
 70
     0
  9
$DIMTAD
 70
     1
  9
$DIMZIN
 70
     8
  9
$DIMBLK
  1

  9
$DIMASO
 70
     1
  9
$DIMSHO
 70
     1
  9
$DIMPOST
  1

  9
$DIMAPOST
  1

  9
$DIMALT
 70
     0
  9
$DIMALTD
 70
     3
  9
$DIMALTF
 40
0.03937007874016
  9
$DIMLFAC
 40
1.0
  9
$DIMTOFL
 70
     1
  9
$DIMTVP
 40
0.0
  9
$DIMTIX
 70
     0
  9
$DIMSOXD
 70
     0
  9
$DIMSAH
 70
     0
  9
$DIMBLK1
  1

  9
$DIMBLK2
  1

  9
$DIMSTYLE
  2
Standard
  9
$DIMCLRD
 70
     0
  9
$DIMCLRE
 70
     0
  9
$DIMCLRT
 70
     0
  9
$DIMTFAC
 40
1.0
  9
$DIMGAP
 40
0.625
  9
$DIMJUST
 70
     0
  9
$DIMSD1
 70
     0
  9
$DIMSD2
 70
     0
  9
$DIMTOLJ
 70
     0
  9
$DIMTZIN
 70
     8
  9
$DIMALTZ
 70
     0
  9
$DIMALTTZ
 70
     0
  9
$DIMUPT
 70
     0
  9
$DIMDEC
 70
     2
  9
$DIMTDEC
 70
     2
  9
$DIMALTU
 70
     2
  9
$DIMALTTD
 70
     3
  9
$DIMTXSTY
  7
Standard
  9
$DIMAUNIT
 70
     0
  9
$DIMADEC
 70
     0
  9
$DIMALTRND
 40
0.0
  9
$DIMAZIN
 70
     0
  9
$DIMDSEP
 70
    44
  9
$DIMATFIT
 70
     3
  9
$DIMFRAC
 70
     0
  9
$DIMLDRBLK
  1

  9
$DIMLUNIT
 70
     2
  9
$DIMLWD
 70
    -2
  9
$DIMLWE
 70
    -2
  9
$DIMTMOVE
 70
     0
  9
$DIMFXL
 40
1.0
  9
$DIMFXLON
 70
     0
  9
$DIMJOGANG
 40
0.7853981633974483
  9
$DIMTFILL
 70
     0
  9
$DIMTFILLCLR
 70
     0
  9
$DIMARCSYM
 70
     0
  9
$DIMLTYPE
  6

  9
$DIMLTEX1
  6

  9
$DIMLTEX2
  6

  9
$DIMTXTDIRECTION
 70
     0
  9
$LUNITS
 70
     2
  9
$LUPREC
 70
     4
  9
$SKETCHINC
 40
1.0
  9
$FILLETRAD
 40
10.0
  9
$AUNITS
 70
     0
  9
$AUPREC
 70
     0
  9
$MENU
  1
.
  9
$ELEVATION
 40
0.0
  9
$PELEVATION
 40
0.0
  9
$THICKNESS
 40
0.0
  9
$LIMCHECK
 70
     0
  9
$CHAMFERA
 40
0.0
  9
$CHAMFERB
 40
0.0
  9
$CHAMFERC
 40
0.0
  9
$CHAMFERD
 40
0.0
  9
$SKPOLY
 70
     0
  9
$TDCREATE
 40
2457634.380174953
  9
$TDUCREATE
 40
2457634.29684162
  9
$TDUPDATE
 40
2457634.380176759
  9
$TDUUPDATE
 40
2457634.296843426
  9
$TDINDWG
 40
0.0000000116
  9
$TDUSRTIMER
 40
0.0000000116
  9
$USRTIMER
 70
     1
  9
$ANGBASE
 50
0.0
  9
$ANGDIR
 70
     0
  9
$PDMODE
 70
     0
  9
$PDSIZE
 40
0.0
  9
$PLINEWID
 40
0.0
  9
$SPLFRAME
 70
     0
  9
$SPLINETYPE
 70
     6
  9
$SPLINESEGS
 70
     8
  9
$HANDSEED
  5
417
  9
$SURFTAB1
 70
     6
  9
$SURFTAB2
 70
     6
  9
$SURFTYPE
 70
     6
  9
$SURFU
 70
     6
  9
$SURFV
 70
     6
  9
$UCSBASE
  2

  9
$UCSNAME
  2

  9
$UCSORG
 10
0.0
 20
0.0
 30
0.0
  9
$UCSXDIR
 10
1.0
 20
0.0
 30
0.0
  9
$UCSYDIR
 10
0.0
 20
1.0
 30
0.0
  9
$UCSORTHOREF
  2

  9
$UCSORTHOVIEW
 70
     0
  9
$UCSORGTOP
 10
0.0
 20
0.0
 30
0.0
  9
$UCSORGBOTTOM
 10
0.0
 20
0.0
 30
0.0
  9
$UCSORGLEFT
 10
0.0
 20
0.0
 30
0.0
  9
$UCSORGRIGHT
 10
0.0
 20
0.0
 30
0.0
  9
$UCSORGFRONT
 10
0.0
 20
0.0
 30
0.0
  9
$UCSORGBACK
 10
0.0
 20
0.0
 30
0.0
  9
$PUCSBASE
  2

  9
$PUCSNAME
  2

  9
$PUCSORG
 10
0.0
 20
0.0
 30
0.0
  9
$PUCSXDIR
 10
1.0
 20
0.0
 30
0.0
  9
$PUCSYDIR
 10
0.0
 20
1.0
 30
0.0
  9
$PUCSORTHOREF
  2

  9
$PUCSORTHOVIEW
 70
     0
  9
$PUCSORGTOP
 10
0.0
 20
0.0
 30
0.0
  9
$PUCSORGBOTTOM
 10
0.0
 20
0.0
 30
0.0
  9
$PUCSORGLEFT
 10
0.0
 20
0.0
 30
0.0
  9
$PUCSORGRIGHT
 10
0.0
 20
0.0
 30
0.0
  9
$PUCSORGFRONT
 10
0.0
 20
0.0
 30
0.0
  9
$PUCSORGBACK
 10
0.0
 20
0.0
 30
0.0
  9
$USERI1
 70
     0
  9
$USERI2
 70
     0
  9
$USERI3
 70
     0
  9
$USERI4
 70
     0
  9
$USERI5
 70
     0
  9
$USERR1
 40
0.0
  9
$USERR2
 40
0.0
  9
$USERR3
 40
0.0
  9
$USERR4
 40
0.0
  9
$USERR5
 40
0.0
  9
$WORLDVIEW
 70
     1
  9
$SHADEDGE
 70
     3
  9
$SHADEDIF
 70
    70
  9
$TILEMODE
 70
     0
  9
$MAXACTVP
 70
    64
  9
$PINSBASE
 10
0.0
 20
0.0
 30
0.0
  9
$PLIMCHECK
 70
     0
  9
$PEXTMIN
 10
0.0
 20
0.0
 30
0.0
  9
$PEXTMAX
 10
0.0
 20
0.0
 30
0.0
  9
$PLIMMIN
 10
-20.0
 20
-7.5
  9
$PLIMMAX
 10
277.0
 20
202.5
  9
$UNITMODE
 70
     0
  9
$VISRETAIN
 70
     1
  9
$PLINEGEN
 70
     0
  9
$PSLTSCALE
 70
     1
  9
$TREEDEPTH
 70
  3020
  9
$CMLSTYLE
  2
Standard
  9
$CMLJUST
 70
     0
  9
$CMLSCALE
 40
20.0
  9
$PROXYGRAPHICS
 70
     1
  9
$MEASUREMENT
 70
     1
  9
$CELWEIGHT
370
    -1
  9
$ENDCAPS
280
     0
  9
$JOINSTYLE
280
     0
  9
$LWDISPLAY
290
     0
  9
$INSUNITS
 70
     4
  9
$HYPERLINKBASE
  1

  9
$STYLESHEET
  1

  9
$XEDIT
290
     1
  9
$CEPSNTYPE
380
     0
  9
$PSTYLEMODE
290
     1
  9
$FINGERPRINTGUID
  2
{9C5CEF92-CEA5-4543-BCBC-3896D62AE206}
  9
$VERSIONGUID
  2
{FAEB1C32-E019-11D5-929B-00C0DF256EC4}
  9
$EXTNAMES
290
     1
  9
$PSVPSCALE
 40
0.0
  9
$OLESTARTUP
290
     0
  9
$SORTENTS
280
   127
  9
$INDEXCTL
280
     0
  9
$HIDETEXT
280
     1
  9
$XCLIPFRAME
280
     2
  9
$HALOGAP
280
     0
  9
$OBSCOLOR
 70
   257
  9
$OBSLTYPE
280
     0
  9
$INTERSECTIONDISPLAY
280
     0
  9
$INTERSECTIONCOLOR
 70
   257
  9
$DIMASSOC
280
     2
  9
$PROJECTNAME
  1

  9
$CAMERADISPLAY
290
     0
  9
$LENSLENGTH
 40
50.0
  9
$CAMERAHEIGHT
 40
0.0
  9
$STEPSPERSEC
 40
2.0
  9
$STEPSIZE
 40
6.0
  9
$3DDWFPREC
 40
2.0
  9
$PSOLWIDTH
 40
5.0
  9
$PSOLHEIGHT
 40
80.0
  9
$LOFTANG1
 40
1.570796326794897
  9
$LOFTANG2
 40
1.570796326794897
  9
$LOFTMAG1
 40
0.0
  9
$LOFTMAG2
 40
0.0
  9
$LOFTPARAM
 70
     7
  9
$LOFTNORMALS
280
     1
  9
$LATITUDE
 40
37.795
  9
$LONGITUDE
 40
-122.394
  9
$NORTHDIRECTION
 40
0.0
  9
$TIMEZONE
 70
 -8000
  9
$LIGHTGLYPHDISPLAY
280
     1
  9
$TILEMODELIGHTSYNCH
280
     1
  9
$CMATERIAL
347
44
  9
$SOLIDHIST
280
     1
  9
$SHOWHIST
280
     1
  9
$DWFFRAME
280
     2
  9
$DGNFRAME
280
     2
  9
$REALWORLDSCALE
290
     1
  9
$INTERFERECOLOR
 62
   256
  9
$CSHADOW
280
     0
  9
$SHADOWPLANELOCATION
 40
0.0
  0
ENDSEC
  0
SECTION
  2
CLASSES
  0
CLASS
  1
ACDBDICTIONARYWDFLT
  2
AcDbDictionaryWithDefault
  3
ObjectDBX Classes
 90
        0
 91
        4
280
     0
281
     0
  0
CLASS
  1
VISUALSTYLE
  2
AcDbVisualStyle
  3
ObjectDBX Classes
 90
     4095
 91
        4
280
     0
281
     0
  0
CLASS
  1
MATERIAL
  2
AcDbMaterial
  3
ObjectDBX Classes
 90
     1153
 91
        4
280
     0
281
     0
  0
CLASS
  1
SCALE
  2
AcDbScale
  3
ObjectDBX Classes
 90
     1153
 91
        4
280
     0
281
     0
  0
CLASS
  1
SUN
  2
AcDbSun
  3
SCENEOE
 90
     1153
 91
        4
280
     0
281
     0
  0
CLASS
  1
ACDB_ALDIMOBJECTCONTEXTDATA_CLASS
  2
AcDbAlignedDimensionObjectContextData
  3
ObjectDBX Classes
 90
     1153
 91
        4
280
     0
281
     0
  0
CLASS
  1
ACDB_TEXTOBJECTCONTEXTDATA_CLASS
  2
AcDbTextObjectContextData
  3
ObjectDBX Classes
 90
     1153
 91
        5
280
     0
281
     0
  0
CLASS
  1
ACDB_MTEXTOBJECTCONTEXTDATA_CLASS
  2
AcDbMTextObjectContextData
  3
ObjectDBX Classes
 90
     1153
 91
        4
280
     0
281
     0
  0
CLASS
  1
ACDB_HATCHSCALECONTEXTDATA_CLASS
  2
AcDbHatchScaleContextData
  3
ObjectDBX Classes
 90
     1153
 91
        5
280
     0
281
     0
  0
CLASS
  1
DICTIONARYVAR
  2
AcDbDictionaryVar
  3
ObjectDBX Classes
 90
        0
 91
        4
280
     0
281
     0
  0
ENDSEC
  0
SECTION
  2
TABLES
  0
TABLE
  2
VPORT
  5
8
330
0
100
AcDbSymbolTable
 70
     1
  0
VPORT
  5
29
330
8
100
AcDbSymbolTableRecord
100
AcDbViewportTableRecord
  2
*Active
 70
     0
 10
0.0
 20
0.0
 11
1.0
 21
1.0
 12
0.0
 22
0.0
 13
0.0
 23
0.0
 14
10.0
 24
10.0
 15
10.0
 25
10.0
 16
0.0
 26
0.0
 36
1.0
 17
-52135.3515625
 27
-6755.60693359375
 37
0.0
 40
6945.21240234375
 41
1.115693245016537
 42
50.0
 43
0.0
 44
0.0
 50
0.0
 51
0.0
 71
     0
 72
   100
 73
     1
 74
     1
 75
     0
 76
     0
 77
     0
 78
     0
281
     0
 65
     1
110
0.0
120
0.0
130
0.0
111
1.0
121
0.0
131
0.0
112
0.0
122
1.0
132
0.0
 79
     0
146
0.0
 60
     3
 61
     5
292
     1
282
     1
141
0.0
142
0.0
 63
   250
361
69
  0
ENDTAB
  0
TABLE
  2
LTYPE
  5
5
330
0
100
AcDbSymbolTable
 70
    18
  0
LTYPE
  5
14
330
5
100
AcDbSymbolTableRecord
100
AcDbLinetypeTableRecord
  2
ByBlock
 70
     0
  3

 72
    65
 73
     0
 40
0.0
  0
LTYPE
  5
15
330
5
100
AcDbSymbolTableRecord
100
AcDbLinetypeTableRecord
  2
ByLayer
 70
     0
  3

 72
    65
 73
     0
 40
0.0
  0
LTYPE
  5
16
330
5
100
AcDbSymbolTableRecord
100
AcDbLinetypeTableRecord
  2
Continuous
 70
     0
  3
Standard
 72
    65
 73
     0
 40
0.0
  0
LTYPE
  5
6B
330
5
100
AcDbSymbolTableRecord
100
AcDbLinetypeTableRecord
  2
dot
 70
     0
  3
Punktiert
 72
    65
 73
     2
 40
2.0
 49
0.0
 74
     0
 49
-2.0
 74
     0
  0
LTYPE
  5
6C
330
5
100
AcDbSymbolTableRecord
100
AcDbLinetypeTableRecord
  2
dot 1
 70
     0
  3
Punktiert 1
 72
    65
 73
     2
 40
4.0
 49
0.0
 74
     0
 49
-4.0
 74
     0
  0
LTYPE
  5
6D
330
5
100
AcDbSymbolTableRecord
100
AcDbLinetypeTableRecord
  2
dash
 70
     0
  3
Gestrichelt
 72
    65
 73
     2
 40
4.0
 49
2.0
 74
     0
 49
-2.0
 74
     0
  0
LTYPE
  5
6E
330
5
100
AcDbSymbolTableRecord
100
AcDbLinetypeTableRecord
  2
dash 1
 70
     0
  3
Gestrichelt 1
 72
    65
 73
     2
 40
7.0
 49
5.0
 74
     0
 49
-2.0
 74
     0
  0
LTYPE
  5
6F
330
5
100
AcDbSymbolTableRecord
100
AcDbLinetypeTableRecord
  2
dash 2
 70
     0
  3
Gestrichelt 2
 72
    65
 73
     2
 40
11.0
 49
8.0
 74
     0
 49
-3.0
 74
     0
  0
LTYPE
  5
70
330
5
100
AcDbSymbolTableRecord
100
AcDbLinetypeTableRecord
  2
dash 3
 70
     0
  3
Gestrichelt 3
 72
    65
 73
     2
 40
14.0
 49
10.0
 74
     0
 49
-4.0
 74
     0
  0
LTYPE
  5
71
330
5
100
AcDbSymbolTableRecord
100
AcDbLinetypeTableRecord
  2
dash 4
 70
     0
  3
Gestrichelt 4
 72
    65
 73
     2
 40
17.0
 49
12.0
 74
     0
 49
-5.0
 74
     0
  0
LTYPE
  5
72
330
5
100
AcDbSymbolTableRecord
100
AcDbLinetypeTableRecord
  2
dash dot
 70
     0
  3
Strichpunktiert
 72
    65
 73
     4
 40
6.0
 49
2.0
 74
     0
 49
-2.0
 74
     0
 49
0.0
 74
     0
 49
-2.0
 74
     0
  0
LTYPE
  5
73
330
5
100
AcDbSymbolTableRecord
100
AcDbLinetypeTableRecord
  2
dash dot 1
 70
     0
  3
Strichpunktiert 1
 72
    65
 73
     4
 40
9.0
 49
5.0
 74
     0
 49
-2.0
 74
     0
 49
0.0
 74
     0
 49
-2.0
 74
     0
  0
LTYPE
  5
74
330
5
100
AcDbSymbolTableRecord
100
AcDbLinetypeTableRecord
  2
dash dot 2
 70
     0
  3
Strichpunktiert 2
 72
    65
 73
     4
 40
14.0
 49
8.0
 74
     0
 49
-3.0
 74
     0
 49
0.0
 74
     0
 49
-3.0
 74
     0
  0
LTYPE
  5
75
330
5
100
AcDbSymbolTableRecord
100
AcDbLinetypeTableRecord
  2
dash dot 3
 70
     0
  3
Strichpunktiert 3
 72
    65
 73
     4
 40
16.0
 49
10.0
 74
     0
 49
-3.0
 74
     0
 49
0.0
 74
     0
 49
-3.0
 74
     0
  0
LTYPE
  5
76
330
5
100
AcDbSymbolTableRecord
100
AcDbLinetypeTableRecord
  2
dash dot 4
 70
     0
  3
Strichpunktiert 4
 72
    65
 73
     4
 40
20.0
 49
12.0
 74
     0
 49
-4.0
 74
     0
 49
0.0
 74
     0
 49
-4.0
 74
     0
  0
LTYPE
  5
77
330
5
100
AcDbSymbolTableRecord
100
AcDbLinetypeTableRecord
  2
dash dot dot
 70
     0
  3
Strich-Doppelpunkt
 72
    65
 73
     6
 40
8.0
 49
2.0
 74
     0
 49
-2.0
 74
     0
 49
0.0
 74
     0
 49
-2.0
 74
     0
 49
0.0
 74
     0
 49
-2.0
 74
     0
  0
LTYPE
  5
78
330
5
100
AcDbSymbolTableRecord
100
AcDbLinetypeTableRecord
  2
dash dot dot 1
 70
     0
  3
Strich-Doppelpunkt 1
 72
    65
 73
     6
 40
12.0
 49
6.0
 74
     0
 49
-2.0
 74
     0
 49
0.0
 74
     0
 49
-2.0
 74
     0
 49
0.0
 74
     0
 49
-2.0
 74
     0
  0
LTYPE
  5
79
330
5
100
AcDbSymbolTableRecord
100
AcDbLinetypeTableRecord
  2
dash dot dot 2
 70
     0
  3
Strich-Doppelpunkt 2
 72
    65
 73
     6
 40
18.0
 49
9.0
 74
     0
 49
-3.0
 74
     0
 49
0.0
 74
     0
 49
-3.0
 74
     0
 49
0.0
 74
     0
 49
-3.0
 74
     0
  0
LTYPE
  5
7A
330
5
100
AcDbSymbolTableRecord
100
AcDbLinetypeTableRecord
  2
dash dot dot 3
 70
     0
  3
Strich-Doppelpunkt 3
 72
    65
 73
     6
 40
21.0
 49
12.0
 74
     0
 49
-3.0
 74
     0
 49
0.0
 74
     0
 49
-3.0
 74
     0
 49
0.0
 74
     0
 49
-3.0
 74
     0
  0
LTYPE
  5
7B
330
5
100
AcDbSymbolTableRecord
100
AcDbLinetypeTableRecord
  2
Standard
 70
     0
  3

 72
    65
 73
     0
 40
0.0
  0
ENDTAB
  0
TABLE
  2
LAYER
  5
2
330
0
100
AcDbSymbolTable
 70
    18
  0
LAYER
  5
10
330
2
100
AcDbSymbolTableRecord
100
AcDbLayerTableRecord
  2
0
 70
     0
 62
   131
420
  8454143
  6
Continuous
370
     0
390
F
347
46
348
0
1001
AcAecLayerStandard
1000

1000

  0
LAYER
  5
7D
330
2
100
AcDbSymbolTableRecord
100
AcDbLayerTableRecord
  2
Ansichtsfenster
 70
     0
 62
     1
  6
Continuous
290
     0
370
     0
390
F
347
46
348
0
1001
AcAecLayerStandard
1000

1000

  0
LAYER
  5
7F
330
2
100
AcDbSymbolTableRecord
100
AcDbLayerTableRecord
  2
Bemassung-[1_25]
 70
     0
 62
     1
420
 16189191
  6
Continuous
370
     0
390
F
347
46
348
0
1001
AcAecLayerStandard
1000

1000

  0
LAYER
  5
80
330
2
100
AcDbSymbolTableRecord
100
AcDbLayerTableRecord
  2
Bemassung-[1_5]
 70
     0
 62
     1
420
 16189191
  6
Continuous
370
     0
390
F
347
46
348
0
1001
AcAecLayerStandard
1000

1000

  0
LAYER
  5
81
330
2
100
AcDbSymbolTableRecord
100
AcDbLayerTableRecord
  2
L
 70
     0
 62
   131
420
  8454143
  6
Continuous
370
     0
390
F
347
46
348
0
1001
AcAecLayerStandard
1000

1000

  0
LAYER
  5
82
330
2
100
AcDbSymbolTableRecord
100
AcDbLayerTableRecord
  2
L 025-[1_25]
 70
     0
 62
   131
420
  8454143
  6
Continuous
370
     0
390
F
347
46
348
0
1001
AcAecLayerStandard
1000

1000

  0
LAYER
  5
83
330
2
100
AcDbSymbolTableRecord
100
AcDbLayerTableRecord
  2
L 025-[1_5]
 70
     0
 62
   131
420
  8454143
  6
Continuous
370
     0
390
F
347
46
348
0
1001
AcAecLayerStandard
1000

1000

  0
LAYER
  5
84
330
2
100
AcDbSymbolTableRecord
100
AcDbLayerTableRecord
  2
L 1
 70
     0
 62
     3
  6
Continuous
370
     0
390
F
347
46
348
0
1001
AcAecLayerStandard
1000

1000

  0
LAYER
  5
85
330
2
100
AcDbSymbolTableRecord
100
AcDbLayerTableRecord
  2
L 2
 70
     0
 62
     6
  6
Continuous
370
     0
390
F
347
46
348
0
1001
AcAecLayerStandard
1000

1000

  0
LAYER
  5
86
330
2
100
AcDbSymbolTableRecord
100
AcDbLayerTableRecord
  2
Planrahmen
 70
     0
 62
    36
420
  8992002
  6
Continuous
370
     0
390
F
347
46
348
0
1001
AcAecLayerStandard
1000

1000

  0
LAYER
  5
87
330
2
100
AcDbSymbolTableRecord
100
AcDbLayerTableRecord
  2
Schraffur
 70
     0
 62
     9
  6
Continuous
370
     0
390
F
347
46
348
0
1001
AcAecLayerStandard
1000

1000

  0
LAYER
  5
88
330
2
100
AcDbSymbolTableRecord
100
AcDbLayerTableRecord
  2
Schraffur-[1_10]
 70
     0
 62
     9
  6
Continuous
370
     0
390
F
347
46
348
0
1001
AcAecLayerStandard
1000

1000

  0
LAYER
  5
89
330
2
100
AcDbSymbolTableRecord
100
AcDbLayerTableRecord
  2
Standard
 70
     0
 62
     7
  6
Continuous
370
     0
390
F
347
46
348
0
1001
AcAecLayerStandard
1000

1000

  0
LAYER
  5
8A
330
2
100
AcDbSymbolTableRecord
100
AcDbLayerTableRecord
  2
Standard-[1_15]
 70
     0
 62
     7
  6
Continuous
370
     0
390
F
347
46
348
0
1001
AcAecLayerStandard
1000

1000

  0
LAYER
  5
8B
330
2
100
AcDbSymbolTableRecord
100
AcDbLayerTableRecord
  2
Konstruktion
 70
     0
 62
     2
  6
Continuous
290
     0
370
     0
390
F
347
46
348
0
1001
AcAecLayerStandard
1000

1000

  0
LAYER
  5
8C
330
2
100
AcDbSymbolTableRecord
100
AcDbLayerTableRecord
  2
Text-[1_1]
 70
     0
 62
     7
  6
Standard
370
     0
390
F
347
46
348
0
1001
AcAecLayerStandard
1000

1000

  0
LAYER
  5
8D
330
2
100
AcDbSymbolTableRecord
100
AcDbLayerTableRecord
  2
Text-[1_5]
 70
     0
 62
     7
  6
Continuous
370
     0
390
F
347
46
348
0
1001
AcAecLayerStandard
1000

1000

  0
LAYER
  5
F3
330
2
100
AcDbSymbolTableRecord
100
AcDbLayerTableRecord
  2
Defpoints
 70
     0
 62
     7
  6
Continuous
290
     0
370
    -3
390
F
347
46
348
0
  0
ENDTAB
  0
TABLE
  2
STYLE
  5
3
330
0
100
AcDbSymbolTable
 70
     2
  0
STYLE
  5
11
330
3
100
AcDbSymbolTableRecord
100
AcDbTextStyleTableRecord
  2
Standard
 70
     0
 40
0.0
 41
1.0
 50
0.0
 71
     0
 42
2.5
  3
arial.ttf
  4

1001
ACAD
1000
Arial
1071
        0
  0
STYLE
  5
7C
330
3
100
AcDbSymbolTableRecord
100
AcDbTextStyleTableRecord
  2
KOPF_F
 70
     0
 40
0.0
 41
0.9
 50
0.0
 71
     0
 42
2.5
  3

  4

1001
ACAD
1000
ARIAL
1071
        0
  0
ENDTAB
  0
TABLE
  2
VIEW
  5
6
330
0
100
AcDbSymbolTable
 70
     0
  0
ENDTAB
  0
TABLE
  2
UCS
  5
7
330
0
100
AcDbSymbolTable
 70
     0
  0
ENDTAB
  0
TABLE
  2
APPID
  5
9
330
0
100
AcDbSymbolTable
 70
     4
  0
APPID
  5
12
330
9
100
AcDbSymbolTableRecord
100
AcDbRegAppTableRecord
  2
ACAD
 70
     0
  0
APPID
  5
6A
330
9
100
AcDbSymbolTableRecord
100
AcDbRegAppTableRecord
  2
Pointline21
 70
     0
  0
APPID
  5
7E
330
9
100
AcDbSymbolTableRecord
100
AcDbRegAppTableRecord
  2
AcAecLayerStandard
 70
     0
  0
APPID
  5
EE
330
9
100
AcDbSymbolTableRecord
100
AcDbRegAppTableRecord
  2
AcadAnnotative
 70
     0
  0
ENDTAB
  0
TABLE
  2
DIMSTYLE
  5
A
330
0
100
AcDbSymbolTable
 70
     6
100
AcDbDimStyleTable
  0
DIMSTYLE
105
27
102
{ACAD_REACTORS
330
ED
330
100
330
111
330
12B
330
13D
330
14E
330
15F
330
170
330
181
330
192
330
1A5
330
1B7
330
1CF
330
1E0
330
1F1
330
235
330
246
330
257
330
280
330
291
330
2A2
330
2B3
330
2C4
330
2D5
330
2E6
330
2F7
330
308
330
319
330
32A
330
33B
330
34D
330
36D
102
}
330
A
100
AcDbSymbolTableRecord
100
AcDbDimStyleTableRecord
  2
Standard
 70
     0
  3
<>
 40
10.0
 41
1.5
 42
1.5
 43
10.0
 44
1.5
 45
0.1
 46
1.5
 73
     0
 74
     0
 77
     1
 78
     8
 79
     2
140
3.0
141
2.5
143
1.0
145
1.0
146
0.6
147
1.0
171
     3
172
     1
174
     1
178
     0
179
     1
271
     1
272
     2
273
     8
274
     1
277
     6
278
    44
283
     0
284
     8
289
     0
340
7C
342
8E
  0
DIMSTYLE
105
92
330
A
100
AcDbSymbolTableRecord
100
AcDbDimStyleTableRecord
  2
Standard$4
 70
     0
  3
R <>
 40
10.0
 41
4.0
 42
2.0
 43
10.0
 44
4.0
 45
0.1
 73
     0
 74
     0
 75
     1
 76
     1
 77
     1
 78
     8
 79
     2
140
3.0
143
1.0
145
1.0
146
0.6
147
1.0
173
     1
178
     0
179
     1
271
     1
273
     8
274
     1
277
     6
280
     3
281
     1
340
7C
343
93
  0
DIMSTYLE
105
96
330
A
100
AcDbSymbolTableRecord
100
AcDbDimStyleTableRecord
  2
Standard$3
 70
     0
  3
Ø <>
 40
10.0
 41
4.0
 42
2.0
 43
10.0
 44
4.0
 45
0.1
 73
     0
 74
     0
 77
     1
 78
     8
 79
     2
140
3.0
143
1.0
145
1.0
146
0.6
147
1.0
172
     1
178
     0
179
     1
271
     1
273
     8
274
     1
277
     6
280
     3
281
     1
340
7C
  0
DIMSTYLE
105
97
330
A
100
AcDbSymbolTableRecord
100
AcDbDimStyleTableRecord
  2
Standard$2
 70
     0
  3
<>
 40
10.0
 41
4.0
 42
3.0
 43
10.0
 44
3.0
 45
0.01
 73
     0
 74
     0
 77
     1
 78
     8
 79
     2
140
3.0
143
1000.0
145
1.0
146
0.6
147
1.0
172
     1
174
     1
178
     0
179
     2
271
     2
273
     8
274
     1
277
     6
289
     0
340
7C
  0
DIMSTYLE
105
98
330
A
100
AcDbSymbolTableRecord
100
AcDbDimStyleTableRecord
  2
Standard$6
 70
     0
  3
<>
 40
10.0
 41
4.0
 42
3.0
 43
10.0
 44
2.5
 45
0.1
 73
     0
 74
     0
 77
     1
 78
     8
 79
     2
140
3.0
143
1.0
145
2.0
146
0.6
147
2.0
172
     1
173
     1
178
     0
179
     1
271
     1
273
     8
274
     1
277
     6
340
7C
343
93
  0
DIMSTYLE
105
99
330
A
100
AcDbSymbolTableRecord
100
AcDbDimStyleTableRecord
  2
Standard$7
 70
     0
  3
<>
 40
10.0
 41
1.5
 42
2.0
 43
10.0
 44
4.0
 45
0.01
 73
     0
 74
     0
 75
     1
 76
     1
 77
     1
 78
     8
 79
     2
140
3.0
143
1.0
144
0.001
145
1.0
146
0.6
147
1.0
173
     1
178
     0
179
     2
271
     2
273
     8
274
     1
277
     6
340
7C
344
93
  0
ENDTAB
  0
TABLE
  2
BLOCK_RECORD
  5
1
330
0
100
AcDbSymbolTable
 70
    39
  0
BLOCK_RECORD
  5
1F
330
1
100
AcDbSymbolTableRecord
100
AcDbBlockTableRecord
  2
*Model_Space
340
22
 70
     0
280
     1
281
     0
  0
BLOCK_RECORD
  5
401
330
1
100
AcDbSymbolTableRecord
100
AcDbBlockTableRecord
  2
*Paper_Space
340
402
 70
     0
280
     1
281
     0
  0
BLOCK_RECORD
  5
8E
330
1
100
AcDbSymbolTableRecord
100
AcDbBlockTableRecord
  2
_OBLIQUE
340
0
102
{BLKREFS
331
FA
331
FB
331
10B
331
10C
331
11C
331
11D
331
137
331
138
331
148
331
149
331
159
331
15A
331
16A
331
16B
331
17B
331
17C
331
18C
331
18D
331
19D
331
19E
331
1B0
331
1B1
331
1C2
331
1C3
331
1DA
331
1DB
331
1EB
331
1EC
331
1FC
331
1FD
331
240
331
241
331
251
331
252
331
262
331
263
331
28B
331
28C
331
29C
331
29D
331
2AD
331
2AE
331
2BE
331
2BF
331
2CF
331
2D0
331
2E0
331
2E1
331
2F1
331
2F2
331
302
331
303
331
313
331
314
331
324
331
325
331
335
331
336
331
347
331
348
331
358
331
359
331
378
331
379
102
}
 70
     0
280
     1
281
     0
  0
BLOCK_RECORD
  5
93
330
1
100
AcDbSymbolTableRecord
100
AcDbBlockTableRecord
  2
_NONE
340
0
 70
     0
280
     1
281
     0
  0
BLOCK_RECORD
  5
9A
330
1
100
AcDbSymbolTableRecord
100
AcDbBlockTableRecord
  2
Rafix.drg
340
0
102
{BLKREFS
331
20E
331
20F
102
}
 70
     0
280
     1
281
     0
  0
BLOCK_RECORD
  5
F4
330
1
100
AcDbSymbolTableRecord
100
AcDbBlockTableRecord
  2
*D4
340
0
 70
     0
280
     1
281
     0
  0
BLOCK_RECORD
  5
105
330
1
100
AcDbSymbolTableRecord
100
AcDbBlockTableRecord
  2
*D5
340
0
 70
     0
280
     1
281
     0
  0
BLOCK_RECORD
  5
116
330
1
100
AcDbSymbolTableRecord
100
AcDbBlockTableRecord
  2
*D6
340
0
 70
     0
280
     1
281
     0
  0
BLOCK_RECORD
  5
131
330
1
100
AcDbSymbolTableRecord
100
AcDbBlockTableRecord
  2
*D7
340
0
 70
     0
280
     1
281
     0
  0
BLOCK_RECORD
  5
142
330
1
100
AcDbSymbolTableRecord
100
AcDbBlockTableRecord
  2
*D8
340
0
 70
     0
280
     1
281
     0
  0
BLOCK_RECORD
  5
153
330
1
100
AcDbSymbolTableRecord
100
AcDbBlockTableRecord
  2
*D9
340
0
 70
     0
280
     1
281
     0
  0
BLOCK_RECORD
  5
164
330
1
100
AcDbSymbolTableRecord
100
AcDbBlockTableRecord
  2
*D10
340
0
 70
     0
280
     1
281
     0
  0
BLOCK_RECORD
  5
175
330
1
100
AcDbSymbolTableRecord
100
AcDbBlockTableRecord
  2
*D11
340
0
 70
     0
280
     1
281
     0
  0
BLOCK_RECORD
  5
186
330
1
100
AcDbSymbolTableRecord
100
AcDbBlockTableRecord
  2
*D12
340
0
 70
     0
280
     1
281
     0
  0
BLOCK_RECORD
  5
197
330
1
100
AcDbSymbolTableRecord
100
AcDbBlockTableRecord
  2
*D13
340
0
 70
     0
280
     1
281
     0
  0
BLOCK_RECORD
  5
1AA
330
1
100
AcDbSymbolTableRecord
100
AcDbBlockTableRecord
  2
*D14
340
0
 70
     0
280
     1
281
     0
  0
BLOCK_RECORD
  5
1BC
330
1
100
AcDbSymbolTableRecord
100
AcDbBlockTableRecord
  2
*D15
340
0
 70
     0
280
     1
281
     0
  0
BLOCK_RECORD
  5
1D4
330
1
100
AcDbSymbolTableRecord
100
AcDbBlockTableRecord
  2
*D16
340
0
 70
     0
280
     1
281
     0
  0
BLOCK_RECORD
  5
1E5
330
1
100
AcDbSymbolTableRecord
100
AcDbBlockTableRecord
  2
*D17
340
0
 70
     0
280
     1
281
     0
  0
BLOCK_RECORD
  5
1F6
330
1
100
AcDbSymbolTableRecord
100
AcDbBlockTableRecord
  2
*D18
340
0
 70
     0
280
     1
281
     0
  0
BLOCK_RECORD
  5
23A
330
1
100
AcDbSymbolTableRecord
100
AcDbBlockTableRecord
  2
*D19
340
0
 70
     0
280
     1
281
     0
  0
BLOCK_RECORD
  5
24B
330
1
100
AcDbSymbolTableRecord
100
AcDbBlockTableRecord
  2
*D20
340
0
 70
     0
280
     1
281
     0
  0
BLOCK_RECORD
  5
25C
330
1
100
AcDbSymbolTableRecord
100
AcDbBlockTableRecord
  2
*D21
340
0
 70
     0
280
     1
281
     0
  0
BLOCK_RECORD
  5
285
330
1
100
AcDbSymbolTableRecord
100
AcDbBlockTableRecord
  2
*D22
340
0
 70
     0
280
     1
281
     0
  0
BLOCK_RECORD
  5
296
330
1
100
AcDbSymbolTableRecord
100
AcDbBlockTableRecord
  2
*D23
340
0
 70
     0
280
     1
281
     0
  0
BLOCK_RECORD
  5
2A7
330
1
100
AcDbSymbolTableRecord
100
AcDbBlockTableRecord
  2
*D24
340
0
 70
     0
280
     1
281
     0
  0
BLOCK_RECORD
  5
2B8
330
1
100
AcDbSymbolTableRecord
100
AcDbBlockTableRecord
  2
*D25
340
0
 70
     0
280
     1
281
     0
  0
BLOCK_RECORD
  5
2C9
330
1
100
AcDbSymbolTableRecord
100
AcDbBlockTableRecord
  2
*D26
340
0
 70
     0
280
     1
281
     0
  0
BLOCK_RECORD
  5
2DA
330
1
100
AcDbSymbolTableRecord
100
AcDbBlockTableRecord
  2
*D27
340
0
 70
     0
280
     1
281
     0
  0
BLOCK_RECORD
  5
2EB
330
1
100
AcDbSymbolTableRecord
100
AcDbBlockTableRecord
  2
*D28
340
0
 70
     0
280
     1
281
     0
  0
BLOCK_RECORD
  5
2FC
330
1
100
AcDbSymbolTableRecord
100
AcDbBlockTableRecord
  2
*D29
340
0
 70
     0
280
     1
281
     0
  0
BLOCK_RECORD
  5
30D
330
1
100
AcDbSymbolTableRecord
100
AcDbBlockTableRecord
  2
*D30
340
0
 70
     0
280
     1
281
     0
  0
BLOCK_RECORD
  5
31E
330
1
100
AcDbSymbolTableRecord
100
AcDbBlockTableRecord
  2
*D31
340
0
 70
     0
280
     1
281
     0
  0
BLOCK_RECORD
  5
32F
330
1
100
AcDbSymbolTableRecord
100
AcDbBlockTableRecord
  2
*D32
340
0
 70
     0
280
     1
281
     0
  0
BLOCK_RECORD
  5
340
330
1
100
AcDbSymbolTableRecord
100
AcDbBlockTableRecord
  2
*D33
340
0
 70
     0
280
     1
281
     0
  0
BLOCK_RECORD
  5
352
330
1
100
AcDbSymbolTableRecord
100
AcDbBlockTableRecord
  2
*D34
340
0
 70
     0
280
     1
281
     0
  0
BLOCK_RECORD
  5
372
330
1
100
AcDbSymbolTableRecord
100
AcDbBlockTableRecord
  2
*D35
340
0
 70
     0
280
     1
281
     0
  0
BLOCK_RECORD
  5
3B3
330
1
100
AcDbSymbolTableRecord
100
AcDbBlockTableRecord
  2
*Paper_Space37
340
3B4
 70
     0
280
     1
281
     0
  0
BLOCK_RECORD
  5
3C1
330
1
100
AcDbSymbolTableRecord
100
AcDbBlockTableRecord
  2
*Paper_Space38
340
3C2
 70
     0
280
     1
281
     0
  0
ENDTAB
  0
ENDSEC
  0
SECTION
  2
BLOCKS
  0
BLOCK
  5
20
330
1F
100
AcDbEntity
  8
0
100
AcDbBlockBegin
  2
*Model_Space
 70
     0
 10
0.0
 20
0.0
 30
0.0
  3
*Model_Space
  1
*Model_Space
  0
ENDBLK
  5
21
330
1F
100
AcDbEntity
  8
0
100
AcDbBlockEnd
  0
BLOCK
  5
403
330
401
100
AcDbEntity
 67
     1
  8
0
100
AcDbBlockBegin
  2
*Paper_Space
 70
     0
 10
0.0
 20
0.0
 30
0.0
  3
*Paper_Space
  1
*Paper_Space
  0
ENDBLK
  5
404
330
401
100
AcDbEntity
 67
     1
  8
0
100
AcDbBlockEnd
  0
BLOCK
  5
8F
330
8E
100
AcDbEntity
  8
0
100
AcDbBlockBegin
  2
_OBLIQUE
 70
     0
 10
0.0
 20
0.0
 30
0.0
  3
_OBLIQUE
  1
_OBLIQUE
  0
LINE
  5
91
330
8E
100
AcDbEntity
  8
0
  6
ByBlock
 62
     0
370
    -2
100
AcDbLine
 10
-0.5
 20
-0.5
 30
0.0
 11
0.5
 21
0.5
 31
0.0
  0
ENDBLK
  5
90
330
8E
100
AcDbEntity
  8
0
100
AcDbBlockEnd
  0
BLOCK
  5
94
330
93
100
AcDbEntity
  8
0
100
AcDbBlockBegin
  2
_NONE
 70
     0
 10
0.0
 20
0.0
 30
0.0
  3
_NONE
  1
_NONE
  0
ENDBLK
  5
95
330
93
100
AcDbEntity
  8
0
100
AcDbBlockEnd
  0
BLOCK
  5
DB
330
9A
100
AcDbEntity
  8
0
100
AcDbBlockBegin
  2
Rafix.drg
 70
     0
 10
0.0
 20
0.0
 30
0.0
  3
Rafix.drg
  1
Rafix.drg
  0
LINE
  5
9B
330
9A
100
AcDbEntity
  8
Standard
100
AcDbLine
 10
-4.026987538874343
 20
-27.66489790056882
 30
0.0
 11
3.87163506733132
 21
-29.4915505295751
 31
0.0
  0
LINE
  5
9C
330
9A
100
AcDbEntity
  8
Standard
100
AcDbLine
 10
-3.004267327465712
 20
-94.40774437243701
 30
0.0
 11
2.859348564303602
 21
-95.53597970969915
 31
0.0
  0
LINE
  5
9D
330
9A
100
AcDbEntity
  8
Standard
100
AcDbLine
 10
-4.03316765490572
 20
-70.62171106421579
 30
0.0
 11
3.865454951299943
 21
-72.44836369322206
 31
0.0
  0
LINE
  5
9E
330
9A
100
AcDbEntity
  8
Standard
100
AcDbLine
 10
0.0064117130058767
 20
-92.76039575027991
 30
0.0
 11
0.0014515551392124
 21
-99.10957091594693
 31
0.0
  0
LINE
  5
9F
330
9A
100
AcDbEntity
  8
Standard
100
AcDbLine
 10
-2.382059864284324
 20
-4.578011405071539
 30
0.0
 11
2.383050331762755
 21
-4.548198612687656
 31
0.0
  0
LINE
  5
A0
330
9A
100
AcDbEntity
  8
Standard
100
AcDbLine
 10
-4.026987538874343
 20
-7.168463186171493
 30
0.0
 11
3.87163506733132
 21
-8.995115815177769
 31
0.0
  0
LINE
  5
A1
330
9A
100
AcDbEntity
  8
Standard
100
AcDbLine
 10
-4.030656200451537
 20
-14.24947772583641
 30
0.0
 11
3.867966405754126
 21
-16.07613035484269
 31
0.0
  0
LINE
  5
A2
330
9A
100
AcDbEntity
  8
Standard
100
AcDbLine
 10
0.0000000000068994
 20
0.0000000000153232
 30
0.0
 11
0.0015792670966253
 21
-3.883147540213713
 31
0.0
  0
LINE
  5
A3
330
9A
100
AcDbEntity
  8
Standard
100
AcDbLine
 10
-4.035076957417367
 20
-31.20512107350783
 30
0.0
 11
3.863545648788294
 21
-33.0317737025141
 31
0.0
  0
LINE
  5
A4
330
9A
100
AcDbEntity
  8
Standard
100
AcDbLine
 10
-0.0018051619817019
 20
-68.31897717624292
 30
0.0
 11
-0.0067653198483661
 21
-74.66815234190994
 31
0.0
  0
LINE
  5
A5
330
9A
100
AcDbEntity
  8
Standard
100
AcDbLine
 10
-4.033167979367954
 20
-59.76655843248159
 30
0.0
 11
3.865454626837709
 21
-61.59321106148786
 31
0.0
  0
LINE
  5
A6
330
9A
100
AcDbEntity
  8
Standard
100
AcDbLine
 10
0.0060078645889039
 20
-9.735332436018552
 30
0.0
 11
0.0010477067222396
 21
-16.08450760168557
 31
0.0
  0
LINE
  5
A7
330
9A
100
AcDbEntity
  8
Standard
100
AcDbLine
 10
-4.031178947026454
 20
-41.82412392593028
 30
0.0
 11
3.867443659179207
 21
-43.65077655493656
 31
0.0
  0
LINE
  5
A8
330
9A
100
AcDbEntity
  8
Standard
100
AcDbLine
 10
-4.029356863635618
 20
-17.78914534331057
 30
0.0
 11
3.869265742570045
 21
-19.61579797231684
 31
0.0
  0
LINE
  5
A9
330
9A
100
AcDbEntity
  8
Standard
100
AcDbLine
 10
-4.036146945419569
 20
-45.36547084812105
 30
0.0
 11
3.862475660786094
 21
-47.19212347712732
 31
0.0
  0
LINE
  5
AA
330
9A
100
AcDbEntity
  8
Standard
100
AcDbLine
 10
-4.03247795938014
 20
-49.13960894013348
 30
0.0
 11
3.866144646825523
 21
-50.96626156913976
 31
0.0
  0
LINE
  5
AB
330
9A
100
AcDbEntity
  8
Standard
100
AcDbLine
 10
-4.033777620601448
 20
-34.74478869098198
 30
0.0
 11
3.864844985604213
 21
-36.57144131998825
 31
0.0
  0
LINE
  5
AC
330
9A
100
AcDbEntity
  8
Standard
100
AcDbLine
 10
-4.035766328537557
 20
-63.54237582926748
 30
0.0
 11
3.862856277668106
 21
-65.36902845827376
 31
0.0
  0
LINE
  5
AD
330
9A
100
AcDbEntity
  8
Standard
100
AcDbLine
 10
0.0072041049507767
 20
-86.4118998095862
 30
0.0
 11
0.0022439470841142
 21
-92.76107497525322
 31
0.0
  0
LINE
  5
AE
330
9A
100
AcDbEntity
  8
Standard
100
AcDbLine
 10
-0.0007665360853011
 20
-42.92731442778154
 30
0.0
 11
-0.0057266939519653
 21
-49.27648959344856
 31
0.0
  0
LINE
  5
AF
330
9A
100
AcDbEntity
  8
Standard
100
AcDbLine
 10
-4.028057526876543
 20
-21.32881296078472
 30
0.0
 11
3.87056507932912
 21
-23.15546558979099
 31
0.0
  0
LINE
  5
B0
330
9A
100
AcDbEntity
  8
Standard
100
AcDbLine
 10
-4.034466991721638
 20
-67.08204344674164
 30
0.0
 11
3.864155614484025
 21
-68.90869607574791
 31
0.0
  0
LWPOLYLINE
  5
B1
330
9A
100
AcDbEntity
  8
Standard
100
AcDbPolyline
 90
        4
 70
     1
 43
0.0
 10
-4.026987538874343
 20
-27.66489790056882
 10
1.941055365965532
 20
-29.8073218965317
 10
3.871635067331319
 20
-29.4915505295751
 10
-2.083873167147338
 20
-27.34576792406531
  0
LWPOLYLINE
  5
B2
330
9A
100
AcDbEntity
  8
Standard
100
AcDbPolyline
 90
        4
 70
     1
 43
0.0
 10
-4.035766328537557
 20
-63.54237582926748
 10
1.93227657630232
 20
-65.68479982523037
 10
3.862856277668107
 20
-65.36902845827376
 10
-2.092651956810549
 20
-63.22324585276397
  0
LWPOLYLINE
  5
B3
330
9A
100
AcDbEntity
  8
Standard
100
AcDbPolyline
 90
        4
 70
     1
 43
0.0
 10
-4.033167979367954
 20
-59.76655843248159
 10
1.934874925471925
 20
-61.90898242844446
 10
3.865454626837709
 20
-61.59321106148787
 10
-2.090053607640945
 20
-59.44742845597807
  0
LWPOLYLINE
  5
B4
330
9A
100
AcDbEntity
  8
Standard
100
AcDbPolyline
 90
        4
 70
     1
 43
0.0
 10
-4.026987538874343
 20
-7.168463186171493
 10
1.941055365965532
 20
-9.310887182134367
 10
3.87163506733132
 20
-8.995115815177769
 10
-2.083873167147337
 20
-6.849333209667975
  0
LWPOLYLINE
  5
B5
330
9A
100
AcDbEntity
  8
Standard
100
AcDbPolyline
 90
        4
 70
     1
 43
0.0
 10
-4.031178947026454
 20
-41.82412392593028
 10
1.936863957813418
 20
-43.96654792189316
 10
3.867443659179205
 20
-43.65077655493656
 10
-2.088064575299452
 20
-41.50499394942677
  0
LWPOLYLINE
  5
B6
330
9A
100
AcDbEntity
  8
Standard
100
AcDbPolyline
 90
        4
 70
     1
 43
0.0
 10
-4.03247828378553
 20
-38.28445630845613
 10
1.93556462105435
 20
-40.42688030441899
 10
3.866144322420134
 20
-40.1111089374624
 10
-2.089363912058521
 20
-37.9653263319526
  0
LWPOLYLINE
  5
B7
330
9A
100
AcDbEntity
  8
Standard
100
AcDbPolyline
 90
        4
 70
     1
 43
0.0
 10
-4.029801919752027
 20
-78.55158688571896
 10
1.938240985087849
 20
-80.69401088168183
 10
3.868820686453634
 20
-80.37823951472524
 10
-2.086687548025018
 20
-78.23245690921543
  0
LWPOLYLINE
  5
B8
330
9A
100
AcDbEntity
  8
Standard
100
AcDbPolyline
 90
        8
 70
     1
 43
0.0
 10
-3.487972628629196
 20
-6.348157218545095
 10
3.343914846454817
 20
-6.348157218545095
 10
3.843914846454817
 20
-5.848157218545095
 10
3.843914846454817
 20
-0.49621679137248
 10
3.343914846454817
 20
0.00378320862752
 10
-3.487972628629196
 20
0.00378320862752
 10
-3.987972628629196
 20
-0.49621679137248
 10
-3.987972628629196
 20
-5.848157218545095
  0
LWPOLYLINE
  5
B9
330
9A
100
AcDbEntity
  8
Standard
100
AcDbPolyline
 90
        4
 70
     1
 43
0.0
 10
-4.034467316183873
 20
-56.22689081500744
 10
1.933575588656003
 20
-58.3693148109703
 10
3.864155290021788
 20
-58.05354344401371
 10
-2.091352944456868
 20
-55.90776083850392
  0
LWPOLYLINE
  5
BA
330
9A
100
AcDbEntity
  8
Standard
100
AcDbPolyline
 90
        4
 70
     1
 43
0.0
 10
-4.031868318146644
 20
-74.16137868168994
 10
1.936174586693231
 20
-76.30380267765281
 10
3.866754288059016
 20
-75.98803131069621
 10
-2.08875394641964
 20
-73.84224870518642
  0
LWPOLYLINE
  5
BB
330
9A
100
AcDbEntity
  8
Standard
100
AcDbPolyline
 90
        4
 70
     1
 43
0.0
 10
-4.034466991721638
 20
-67.08204344674164
 10
1.933575913118233
 20
-69.22446744270452
 10
3.864155614484021
 20
-68.90869607574791
 10
-2.091352619994637
 20
-66.76291347023813
  0
LWPOLYLINE
  5
BC
330
9A
100
AcDbEntity
  8
Standard
100
AcDbPolyline
 90
        4
 70
     1
 43
0.0
 10
-4.029356863635618
 20
-17.78914534331057
 10
1.938686041204257
 20
-19.93156933927344
 10
3.869265742570045
 20
-19.61579797231684
 10
-2.086242491908613
 20
-17.47001536680704
  0
LWPOLYLINE
  5
BD
330
9A
100
AcDbEntity
  8
Standard
100
AcDbPolyline
 90
        4
 70
     1
 43
0.0
 10
-4.026987538874343
 20
-24.87232658028508
 10
1.941055365965532
 20
-27.01475057624796
 10
3.871635067331319
 20
-26.69897920929136
 10
-2.083873167147338
 20
-24.55319660378157
  0
LWPOLYLINE
  5
BE
330
9A
100
AcDbEntity
  8
Standard
100
AcDbPolyline
 90
        4
 70
     1
 43
0.0
 10
-4.033777620601448
 20
-34.74478869098198
 10
1.934265284238427
 20
-36.88721268694485
 10
3.864844985604216
 20
-36.57144131998825
 10
-2.090663248874443
 20
-34.42565871447847
  0
LWPOLYLINE
  5
BF
330
9A
100
AcDbEntity
  8
Standard
100
AcDbPolyline
 90
        4
 70
     1
 43
0.0
 10
-4.03316765490572
 20
-70.62171106421579
 10
1.934875249934159
 20
-72.76413506017866
 10
3.865454951299941
 20
-72.44836369322206
 10
-2.090053283178712
 20
-70.30258108771227
  0
LWPOLYLINE
  5
C0
330
9A
100
AcDbEntity
  8
Standard
100
AcDbPolyline
 90
        4
 70
     1
 43
0.0
 10
-4.030801546288242
 20
-82.0904268483489
 10
1.937241358551639
 20
-84.23285084431176
 10
3.867821059917421
 20
-83.91707947735516
 10
-2.087687174561228
 20
-81.77129687184535
  0
LWPOLYLINE
  5
C1
330
9A
100
AcDbEntity
  8
Standard
100
AcDbPolyline
 90
        4
 70
     1
 43
0.0
 10
-4.027493800403047
 20
-86.27043112583556
 10
1.94054910443683
 20
-88.41285512179843
 10
3.871128805802615
 20
-88.09708375484183
 10
-2.084379428676046
 20
-85.95130114933204
  0
LWPOLYLINE
  5
C2
330
9A
100
AcDbEntity
  8
Standard
100
AcDbPolyline
 90
        4
 70
     1
 43
0.0
 10
-3.004267327465712
 20
-94.40774437243701
 10
0.8697520128279486
 20
-95.79273422654587
 10
2.859348564303597
 20
-95.53597970969916
 10
-1.634668265690907
 20
-94.00619156835884
  0
LWPOLYLINE
  5
C3
330
9A
100
AcDbEntity
  8
Standard
100
AcDbPolyline
 90
        4
 70
     1
 43
0.0
 10
-4.035766652999792
 20
-52.68722319753329
 10
1.932276251840083
 20
-54.82964719349616
 10
3.862855953205873
 20
-54.51387582653956
 10
-2.092652281272786
 20
-52.36809322102977
  0
LWPOLYLINE
  5
C4
330
9A
100
AcDbEntity
  8
Standard
100
AcDbPolyline
 90
        6
 70
     0
 43
0.0
 10
-2.081895246671044
 20
-6.405461601313846
 10
-2.079567712538462
 20
-91.04216086635572
 10
0.0028576699300373
 20
-99.99621679137246
 10
0.8710131949136866
 20
-95.78661888278813
 10
1.948657354777354
 20
-92.76392882489854
 10
1.945796766197961
 20
-6.348157218545096
  0
LWPOLYLINE
  5
C5
330
9A
100
AcDbEntity
  8
Standard
100
AcDbPolyline
 90
        4
 70
     1
 43
0.0
 10
-4.031955537267455
 20
-10.70981010836226
 10
1.93608736757242
 20
-12.85223410432513
 10
3.866667068938206
 20
-12.53646273736854
 10
-2.08884116554045
 20
-10.39068013185874
  0
LWPOLYLINE
  5
C6
330
9A
100
AcDbEntity
  8
Standard
100
AcDbPolyline
 90
        4
 70
     1
 43
0.0
 10
-4.026194463587128
 20
-89.81009874330971
 10
1.941848441252745
 20
-91.95252273927258
 10
3.872428142618527
 20
-91.63675137231598
 10
-2.083080091860122
 20
-89.49096876680618
  0
LWPOLYLINE
  5
C7
330
9A
100
AcDbEntity
  8
Standard
100
AcDbPolyline
 90
        4
 70
     0
 43
0.0
 10
-2.382059864284107
 20
-0.0010919013877806
 10
-2.382059864284214
 20
-4.578011405071604
 42
0.2683822369012311
 10
2.392186722751743
 20
-4.572364654230907
 10
2.380548691381685
 20
-0.0012585259898968
  0
LWPOLYLINE
  5
C8
330
9A
100
AcDbEntity
  8
Standard
100
AcDbPolyline
 90
        4
 70
     1
 43
0.0
 10
-4.028057526876543
 20
-21.32881296078472
 10
1.939985377963331
 20
-23.47123695674759
 10
3.870565079329118
 20
-23.15546558979099
 10
-2.084943155149539
 20
-21.0096829842812
  0
LWPOLYLINE
  5
C9
330
9A
100
AcDbEntity
  8
Standard
100
AcDbPolyline
 90
        4
 70
     1
 43
0.0
 10
-4.03247795938014
 20
-49.13960894013348
 10
1.935564945459736
 20
-51.28203293609636
 10
3.866144646825523
 20
-50.96626156913976
 10
-2.089363587653132
 20
-48.82047896362997
  0
LWPOLYLINE
  5
CA
330
9A
100
AcDbEntity
  8
Standard
100
AcDbPolyline
 90
        4
 70
     1
 43
0.0
 10
-4.036146945419569
 20
-45.36547084812105
 10
1.931895959420303
 20
-47.50789484408392
 10
3.862475660786092
 20
-47.19212347712732
 10
-2.093032573692565
 20
-45.04634087161754
  0
LWPOLYLINE
  5
CB
330
9A
100
AcDbEntity
  8
Standard
100
AcDbPolyline
 90
        4
 70
     1
 43
0.0
 10
-4.030656200451537
 20
-14.24947772583641
 10
1.937386704388339
 20
-16.39190172179929
 10
3.867966405754125
 20
-16.07613035484269
 10
-2.087541828724532
 20
-13.9303477493329
  0
LWPOLYLINE
  5
CC
330
9A
100
AcDbEntity
  8
Standard
100
AcDbPolyline
 90
        4
 70
     1
 43
0.0
 10
-4.035076957417367
 20
-31.20512107350783
 10
1.932965947422505
 20
-33.3475450694707
 10
3.863545648788294
 20
-33.0317737025141
 10
-2.091962585690363
 20
-30.88599109700431
  0
LWPOLYLINE
  5
CD
330
9A
100
AcDbEntity
  8
Standard
100
AcDbPolyline
 90
        4
 70
     0
 43
0.0
 10
-1.321293485454598
 20
-0.0001090222508277
 10
-1.325055798839818
 20
-4.547609221694755
 42
0.4912736569611557
 10
1.32076466728532
 20
-4.556886288804178
 10
1.324366961545005
 20
0.0045860428283506
  0
LINE
  5
CE
330
9A
100
AcDbEntity
  8
Standard
100
AcDbLine
 10
-4.035766652999792
 20
-52.68722319753329
 30
0.0
 11
3.862855953205871
 21
-54.51387582653956
 31
0.0
  0
LINE
  5
CF
330
9A
100
AcDbEntity
  8
Standard
100
AcDbLine
 10
-4.026987538874343
 20
-24.87232658028508
 30
0.0
 11
3.87163506733132
 21
-26.69897920929136
 31
0.0
  0
LINE
  5
D0
330
9A
100
AcDbEntity
  8
Standard
100
AcDbLine
 10
-4.034467316183873
 20
-56.22689081500744
 30
0.0
 11
3.86415529002179
 21
-58.05354344401371
 31
0.0
  0
LINE
  5
D1
330
9A
100
AcDbEntity
  8
Standard
100
AcDbLine
 10
0.0012737693042233
 20
-78.4358929342759
 30
0.0
 11
-0.0036863885624392
 21
-84.78506809994292
 31
0.0
  0
LINE
  5
D2
330
9A
100
AcDbEntity
  8
Standard
100
AcDbLine
 10
-4.031868318146644
 20
-74.16137868168994
 30
0.0
 11
3.866754288059019
 21
-75.98803131069621
 31
0.0
  0
LINE
  5
D3
330
9A
100
AcDbEntity
  8
Standard
100
AcDbLine
 10
-4.029801919752027
 20
-78.55158688571896
 30
0.0
 11
3.868820686453637
 21
-80.37823951472524
 31
0.0
  0
LINE
  5
D4
330
9A
100
AcDbEntity
  8
Standard
100
AcDbLine
 10
-4.030801546288242
 20
-82.0904268483489
 30
0.0
 11
3.86782105991742
 21
-83.91707947735517
 31
0.0
  0
LINE
  5
D5
330
9A
100
AcDbEntity
  8
Standard
100
AcDbLine
 10
0.0018478185425916
 20
-55.6223061496255
 30
0.0
 11
-0.0031123393240708
 21
-61.97148131529252
 31
0.0
  0
LINE
  5
D6
330
9A
100
AcDbEntity
  8
Standard
100
AcDbLine
 10
-4.027493800403047
 20
-86.27043112583556
 30
0.0
 11
3.871128805802615
 21
-88.09708375484183
 31
0.0
  0
LINE
  5
D7
330
9A
100
AcDbEntity
  8
Standard
100
AcDbLine
 10
-4.026194463587128
 20
-89.81009874330971
 30
0.0
 11
3.872428142618533
 21
-91.63675137231598
 31
0.0
  0
LINE
  5
D8
330
9A
100
AcDbEntity
  8
Standard
100
AcDbLine
 10
0.0028864444389924
 20
-30.23064340116412
 30
0.0
 11
-0.00207371342767
 21
-36.57981856683114
 31
0.0
  0
LINE
  5
D9
330
9A
100
AcDbEntity
  8
Standard
100
AcDbLine
 10
-4.03247828378553
 20
-38.28445630845613
 30
0.0
 11
3.866144322420132
 21
-40.1111089374624
 31
0.0
  0
LINE
  5
DA
330
9A
100
AcDbEntity
  8
Standard
100
AcDbLine
 10
-4.031955537267455
 20
-10.70981010836226
 30
0.0
 11
3.866667068938208
 21
-12.53646273736854
 31
0.0
  0
ENDBLK
  5
DC
330
9A
100
AcDbEntity
  8
0
100
AcDbBlockEnd
  0
BLOCK
  5
F5
330
F4
100
AcDbEntity
  8
0
100
AcDbBlockBegin
  2
*D4
 70
     1
 10
0.0
 20
0.0
 30
0.0
  3
*D4
  1
*D4
  0
LINE
  5
F7
330
F4
100
AcDbEntity
  8
Bemassung-[1_5]
 62
     0
370
    -2
100
AcDbLine
 10
-54553.94906616211
 20
-7513.806640625
 30
0.0
 11
-54553.94906616211
 21
-7548.6806640625
 31
0.0
  0
LINE
  5
F8
330
F4
100
AcDbEntity
  8
Bemassung-[1_5]
 62
     0
370
    -2
100
AcDbLine
 10
-54541.94873046875
 20
-7513.806640625
 30
0.0
 11
-54541.94873046875
 21
-7548.6806640625
 31
0.0
  0
LINE
  5
F9
330
F4
100
AcDbEntity
  8
Bemassung-[1_5]
 62
     0
370
    -2
100
AcDbLine
 10
-54561.44906616211
 20
-7541.1806640625
 30
0.0
 11
-54534.44873046875
 21
-7541.1806640625
 31
0.0
  0
INSERT
  5
FA
330
F4
100
AcDbEntity
  8
Bemassung-[1_5]
 62
     0
370
    -2
100
AcDbBlockReference
  2
_OBLIQUE
 10
-54553.94906616211
 20
-7541.1806640625
 30
0.0
 41
7.5
 42
7.5
 43
7.5
 50
180.0
  0
INSERT
  5
FB
330
F4
100
AcDbEntity
  8
Bemassung-[1_5]
 62
     0
370
    -2
100
AcDbBlockReference
  2
_OBLIQUE
 10
-54541.94873046875
 20
-7541.1806640625
 30
0.0
 41
7.5
 42
7.5
 43
7.5
  0
MTEXT
  5
FC
330
F4
100
AcDbEntity
  8
Bemassung-[1_5]
 62
     0
100
AcDbMText
 10
-54547.94889831543
 20
-7528.6506640625
 30
0.0
 40
15.0
 41
0.0
 46
0.0
 71
     5
 72
     1
  1
12
  7
KOPF_F
 73
     1
 44
1.0
  0
POINT
  5
FD
330
F4
100
AcDbEntity
  8
Defpoints
 62
     0
100
AcDbPoint
 10
-54553.94906616211
 20
-7506.306640625
 30
0.0
  0
POINT
  5
FE
330
F4
100
AcDbEntity
  8
Defpoints
 62
     0
100
AcDbPoint
 10
-54541.94873046875
 20
-7506.306640625
 30
0.0
  0
POINT
  5
FF
330
F4
100
AcDbEntity
  8
Defpoints
 62
     0
100
AcDbPoint
 10
-54541.94873046875
 20
-7541.1806640625
 30
0.0
  0
ENDBLK
  5
F6
330
F4
100
AcDbEntity
  8
0
100
AcDbBlockEnd
  0
BLOCK
  5
106
330
105
100
AcDbEntity
  8
0
100
AcDbBlockBegin
  2
*D5
 70
     1
 10
0.0
 20
0.0
 30
0.0
  3
*D5
  1
*D5
  0
LINE
  5
108
330
105
100
AcDbEntity
  8
Bemassung-[1_5]
 62
     0
370
    -2
100
AcDbLine
 10
-53536.44906616211
 20
-7513.806640625
 30
0.0
 11
-53536.44906616211
 21
-7545.41650390625
 31
0.0
  0
LINE
  5
109
330
105
100
AcDbEntity
  8
Bemassung-[1_5]
 62
     0
370
    -2
100
AcDbLine
 10
-53528.44906616211
 20
-7513.806640625
 30
0.0
 11
-53528.44906616211
 21
-7545.41650390625
 31
0.0
  0
LINE
  5
10A
330
105
100
AcDbEntity
  8
Bemassung-[1_5]
 62
     0
370
    -2
100
AcDbLine
 10
-53543.94906616211
 20
-7537.91650390625
 30
0.0
 11
-53520.94906616211
 21
-7537.91650390625
 31
0.0
  0
INSERT
  5
10B
330
105
100
AcDbEntity
  8
Bemassung-[1_5]
 62
     0
370
    -2
100
AcDbBlockReference
  2
_OBLIQUE
 10
-53536.44906616211
 20
-7537.91650390625
 30
0.0
 41
7.5
 42
7.5
 43
7.5
 50
180.0
  0
INSERT
  5
10C
330
105
100
AcDbEntity
  8
Bemassung-[1_5]
 62
     0
370
    -2
100
AcDbBlockReference
  2
_OBLIQUE
 10
-53528.44906616211
 20
-7537.91650390625
 30
0.0
 41
7.5
 42
7.5
 43
7.5
  0
MTEXT
  5
10D
330
105
100
AcDbEntity
  8
Bemassung-[1_5]
 62
     0
100
AcDbMText
 10
-53532.44906616211
 20
-7525.25900390625
 30
0.0
 40
15.0
 41
0.0
 46
0.0
 71
     5
 72
     1
  1
8
  7
KOPF_F
 73
     1
 44
1.0
  0
POINT
  5
10E
330
105
100
AcDbEntity
  8
Defpoints
 62
     0
100
AcDbPoint
 10
-53536.44906616211
 20
-7506.306640625
 30
0.0
  0
POINT
  5
10F
330
105
100
AcDbEntity
  8
Defpoints
 62
     0
100
AcDbPoint
 10
-53528.44906616211
 20
-7506.306640625
 30
0.0
  0
POINT
  5
110
330
105
100
AcDbEntity
  8
Defpoints
 62
     0
100
AcDbPoint
 10
-53528.44906616211
 20
-7537.91650390625
 30
0.0
  0
ENDBLK
  5
107
330
105
100
AcDbEntity
  8
0
100
AcDbBlockEnd
  0
BLOCK
  5
117
330
116
100
AcDbEntity
  8
0
100
AcDbBlockBegin
  2
*D6
 70
     1
 10
0.0
 20
0.0
 30
0.0
  3
*D6
  1
*D6
  0
LINE
  5
119
330
116
100
AcDbEntity
  8
Bemassung-[1_5]
 62
     0
370
    -2
100
AcDbLine
 10
-54535.44906616211
 20
-7392.806640625
 30
0.0
 11
-54589.1171875
 21
-7392.806640625
 31
0.0
  0
LINE
  5
11A
330
116
100
AcDbEntity
  8
Bemassung-[1_5]
 62
     0
370
    -2
100
AcDbLine
 10
-54535.44906616211
 20
-7506.306640625
 30
0.0
 11
-54589.1171875
 21
-7506.306640625
 31
0.0
  0
LINE
  5
11B
330
116
100
AcDbEntity
  8
Bemassung-[1_5]
 62
     0
370
    -2
100
AcDbLine
 10
-54581.6171875
 20
-7385.306640625
 30
0.0
 11
-54581.6171875
 21
-7513.806640625
 31
0.0
  0
INSERT
  5
11C
330
116
100
AcDbEntity
  8
Bemassung-[1_5]
 62
     0
370
    -2
100
AcDbBlockReference
  2
_OBLIQUE
 10
-54581.6171875
 20
-7392.806640625
 30
0.0
 41
7.5
 42
7.5
 43
7.5
 50
90.0
  0
INSERT
  5
11D
330
116
100
AcDbEntity
  8
Bemassung-[1_5]
 62
     0
370
    -2
100
AcDbBlockReference
  2
_OBLIQUE
 10
-54581.6171875
 20
-7506.306640625
 30
0.0
 41
7.5
 42
7.5
 43
7.5
 50
270.0
  0
MTEXT
  5
11E
330
116
100
AcDbEntity
  8
Bemassung-[1_5]
 62
     0
100
AcDbMText
 10
-54594.2746875
 20
-7449.556640625
 30
0.0
 40
15.0
 41
0.0
 46
0.0
 71
     5
 72
     1
  1
113.5
  7
KOPF_F
 11
0.0
 21
1.0
 31
0.0
 73
     1
 44
1.0
  0
POINT
  5
11F
330
116
100
AcDbEntity
  8
Defpoints
 62
     0
100
AcDbPoint
 10
-54527.94906616211
 20
-7392.806640625
 30
0.0
  0
POINT
  5
120
330
116
100
AcDbEntity
  8
Defpoints
 62
     0
100
AcDbPoint
 10
-54527.94906616211
 20
-7506.306640625
 30
0.0
  0
POINT
  5
121
330
116
100
AcDbEntity
  8
Defpoints
 62
     0
100
AcDbPoint
 10
-54581.6171875
 20
-7506.306640625
 30
0.0
  0
ENDBLK
  5
118
330
116
100
AcDbEntity
  8
0
100
AcDbBlockEnd
  0
BLOCK
  5
132
330
131
100
AcDbEntity
  8
0
100
AcDbBlockBegin
  2
*D7
 70
     1
 10
0.0
 20
0.0
 30
0.0
  3
*D7
  1
*D7
  0
LINE
  5
134
330
131
100
AcDbEntity
  8
Bemassung-[1_25]
 62
     0
370
    -2
100
AcDbLine
 10
-51050.86042421467
 20
-6778.691406249999
 30
0.0
 11
-51110.36328125
 21
-6778.691406249999
 31
0.0
  0
LINE
  5
135
330
131
100
AcDbEntity
  8
Bemassung-[1_25]
 62
     0
370
    -2
100
AcDbLine
 10
-51050.86042421467
 20
-4918.691589414445
 30
0.0
 11
-51110.36328125
 21
-4918.691589414445
 31
0.0
  0
LINE
  5
136
330
131
100
AcDbEntity
  8
Bemassung-[1_25]
 62
     0
370
    -2
100
AcDbLine
 10
-51072.86328125
 20
-6816.191406249999
 30
0.0
 11
-51072.86328125
 21
-4881.191589414445
 31
0.0
  0
INSERT
  5
137
330
131
100
AcDbEntity
  8
Bemassung-[1_25]
 62
     0
370
    -2
100
AcDbBlockReference
  2
_OBLIQUE
 10
-51072.86328125
 20
-6778.691406249999
 30
0.0
 41
37.5
 42
37.5
 43
37.5
 50
270.0
  0
INSERT
  5
138
330
131
100
AcDbEntity
  8
Bemassung-[1_25]
 62
     0
370
    -2
100
AcDbBlockReference
  2
_OBLIQUE
 10
-51072.86328125
 20
-4918.691589414445
 30
0.0
 41
37.5
 42
37.5
 43
37.5
 50
90.0
  0
MTEXT
  5
139
330
131
100
AcDbEntity
  8
Bemassung-[1_25]
 62
     0
100
AcDbMText
 10
-51135.96328125
 20
-5848.691497832222
 30
0.0
 40
75.0
 41
0.0
 46
0.0
 71
     5
 72
     1
  1
Max im Licht
  7
KOPF_F
 11
0.0
 21
1.0
 31
0.0
 73
     1
 44
1.0
  0
POINT
  5
13A
330
131
100
AcDbEntity
  8
Defpoints
 62
     0
100
AcDbPoint
 10
-51013.36042421467
 20
-6778.691406249999
 30
0.0
  0
POINT
  5
13B
330
131
100
AcDbEntity
  8
Defpoints
 62
     0
100
AcDbPoint
 10
-51013.36042421467
 20
-4918.691589414445
 30
0.0
  0
POINT
  5
13C
330
131
100
AcDbEntity
  8
Defpoints
 62
     0
100
AcDbPoint
 10
-51072.86328125
 20
-4918.691589414445
 30
0.0
  0
ENDBLK
  5
133
330
131
100
AcDbEntity
  8
0
100
AcDbBlockEnd
  0
BLOCK
  5
143
330
142
100
AcDbEntity
  8
0
100
AcDbBlockBegin
  2
*D8
 70
     1
 10
0.0
 20
0.0
 30
0.0
  3
*D8
  1
*D8
  0
LINE
  5
145
330
142
100
AcDbEntity
  8
Bemassung-[1_25]
 62
     0
370
    -2
100
AcDbLine
 10
-54501.94906616211
 20
-7355.306640625
 30
0.0
 11
-54501.94906616211
 21
-7290.86083984375
 31
0.0
  0
LINE
  5
146
330
142
100
AcDbEntity
  8
Bemassung-[1_25]
 62
     0
370
    -2
100
AcDbLine
 10
-53569.44906616211
 20
-7355.306640625
 30
0.0
 11
-53569.44906616211
 21
-7290.86083984375
 31
0.0
  0
LINE
  5
147
330
142
100
AcDbEntity
  8
Bemassung-[1_25]
 62
     0
370
    -2
100
AcDbLine
 10
-54539.44906616211
 20
-7328.36083984375
 30
0.0
 11
-53531.94906616211
 21
-7328.36083984375
 31
0.0
  0
INSERT
  5
148
330
142
100
AcDbEntity
  8
Bemassung-[1_25]
 62
     0
370
    -2
100
AcDbBlockReference
  2
_OBLIQUE
 10
-54501.94906616211
 20
-7328.36083984375
 30
0.0
 41
37.5
 42
37.5
 43
37.5
 50
180.0
  0
INSERT
  5
149
330
142
100
AcDbEntity
  8
Bemassung-[1_25]
 62
     0
370
    -2
100
AcDbBlockReference
  2
_OBLIQUE
 10
-53569.44906616211
 20
-7328.36083984375
 30
0.0
 41
37.5
 42
37.5
 43
37.5
  0
MTEXT
  5
14A
330
142
100
AcDbEntity
  8
Bemassung-[1_25]
 62
     0
100
AcDbMText
 10
-54035.69906616211
 20
-7265.26083984375
 30
0.0
 40
75.0
 41
0.0
 46
0.0
 71
     5
 72
     1
  1
Max im Licht
  7
KOPF_F
 73
     1
 44
1.0
  0
POINT
  5
14B
330
142
100
AcDbEntity
  8
Defpoints
 62
     0
100
AcDbPoint
 10
-54501.94906616211
 20
-7392.806640625
 30
0.0
  0
POINT
  5
14C
330
142
100
AcDbEntity
  8
Defpoints
 62
     0
100
AcDbPoint
 10
-53569.44906616211
 20
-7392.806640625
 30
0.0
  0
POINT
  5
14D
330
142
100
AcDbEntity
  8
Defpoints
 62
     0
100
AcDbPoint
 10
-53569.44906616211
 20
-7328.36083984375
 30
0.0
  0
ENDBLK
  5
144
330
142
100
AcDbEntity
  8
0
100
AcDbBlockEnd
  0
BLOCK
  5
154
330
153
100
AcDbEntity
  8
0
100
AcDbBlockBegin
  2
*D9
 70
     1
 10
0.0
 20
0.0
 30
0.0
  3
*D9
  1
*D9
  0
LINE
  5
156
330
153
100
AcDbEntity
  8
Bemassung-[1_25]
 62
     0
370
    -2
100
AcDbLine
 10
-54546.94906616211
 20
-7355.306640625
 30
0.0
 11
-54546.94906616211
 21
-7290.86083984375
 31
0.0
  0
LINE
  5
157
330
153
100
AcDbEntity
  8
Bemassung-[1_25]
 62
     0
370
    -2
100
AcDbLine
 10
-54501.94906616211
 20
-7355.306640625
 30
0.0
 11
-54501.94906616211
 21
-7290.86083984375
 31
0.0
  0
LINE
  5
158
330
153
100
AcDbEntity
  8
Bemassung-[1_25]
 62
     0
370
    -2
100
AcDbLine
 10
-54584.44906616211
 20
-7328.36083984375
 30
0.0
 11
-54464.44906616211
 21
-7328.36083984375
 31
0.0
  0
INSERT
  5
159
330
153
100
AcDbEntity
  8
Bemassung-[1_25]
 62
     0
370
    -2
100
AcDbBlockReference
  2
_OBLIQUE
 10
-54546.94906616211
 20
-7328.36083984375
 30
0.0
 41
37.5
 42
37.5
 43
37.5
 50
180.0
  0
INSERT
  5
15A
330
153
100
AcDbEntity
  8
Bemassung-[1_25]
 62
     0
370
    -2
100
AcDbBlockReference
  2
_OBLIQUE
 10
-54501.94906616211
 20
-7328.36083984375
 30
0.0
 41
37.5
 42
37.5
 43
37.5
  0
MTEXT
  5
15B
330
153
100
AcDbEntity
  8
Bemassung-[1_25]
 62
     0
100
AcDbMText
 10
-54524.44906616211
 20
-7265.22333984375
 30
0.0
 40
75.0
 41
0.0
 46
0.0
 71
     5
 72
     1
  1
45
  7
KOPF_F
 73
     1
 44
1.0
  0
POINT
  5
15C
330
153
100
AcDbEntity
  8
Defpoints
 62
     0
100
AcDbPoint
 10
-54546.94906616211
 20
-7392.806640625
 30
0.0
  0
POINT
  5
15D
330
153
100
AcDbEntity
  8
Defpoints
 62
     0
100
AcDbPoint
 10
-54501.94906616211
 20
-7392.806640625
 30
0.0
  0
POINT
  5
15E
330
153
100
AcDbEntity
  8
Defpoints
 62
     0
100
AcDbPoint
 10
-54501.94906616211
 20
-7328.36083984375
 30
0.0
  0
ENDBLK
  5
155
330
153
100
AcDbEntity
  8
0
100
AcDbBlockEnd
  0
BLOCK
  5
165
330
164
100
AcDbEntity
  8
0
100
AcDbBlockBegin
  2
*D10
 70
     1
 10
0.0
 20
0.0
 30
0.0
  3
*D10
  1
*D10
  0
LINE
  5
167
330
164
100
AcDbEntity
  8
Bemassung-[1_25]
 62
     0
370
    -2
100
AcDbLine
 10
-53569.44906616211
 20
-7355.306640625
 30
0.0
 11
-53569.44906616211
 21
-7290.86083984375
 31
0.0
  0
LINE
  5
168
330
164
100
AcDbEntity
  8
Bemassung-[1_25]
 62
     0
370
    -2
100
AcDbLine
 10
-53495.44906616211
 20
-7355.306640625
 30
0.0
 11
-53495.44906616211
 21
-7290.86083984375
 31
0.0
  0
LINE
  5
169
330
164
100
AcDbEntity
  8
Bemassung-[1_25]
 62
     0
370
    -2
100
AcDbLine
 10
-53606.94906616211
 20
-7328.36083984375
 30
0.0
 11
-53457.94906616211
 21
-7328.36083984375
 31
0.0
  0
INSERT
  5
16A
330
164
100
AcDbEntity
  8
Bemassung-[1_25]
 62
     0
370
    -2
100
AcDbBlockReference
  2
_OBLIQUE
 10
-53569.44906616211
 20
-7328.36083984375
 30
0.0
 41
37.5
 42
37.5
 43
37.5
 50
180.0
  0
INSERT
  5
16B
330
164
100
AcDbEntity
  8
Bemassung-[1_25]
 62
     0
370
    -2
100
AcDbBlockReference
  2
_OBLIQUE
 10
-53495.44906616211
 20
-7328.36083984375
 30
0.0
 41
37.5
 42
37.5
 43
37.5
  0
MTEXT
  5
16C
330
164
100
AcDbEntity
  8
Bemassung-[1_25]
 62
     0
100
AcDbMText
 10
-53532.44906616211
 20
-7265.86083984375
 30
0.0
 40
75.0
 41
0.0
 46
0.0
 71
     5
 72
     1
  1
74
  7
KOPF_F
 73
     1
 44
1.0
  0
POINT
  5
16D
330
164
100
AcDbEntity
  8
Defpoints
 62
     0
100
AcDbPoint
 10
-53569.44906616211
 20
-7392.806640625
 30
0.0
  0
POINT
  5
16E
330
164
100
AcDbEntity
  8
Defpoints
 62
     0
100
AcDbPoint
 10
-53495.44906616211
 20
-7392.806640625
 30
0.0
  0
POINT
  5
16F
330
164
100
AcDbEntity
  8
Defpoints
 62
     0
100
AcDbPoint
 10
-53495.44906616211
 20
-7328.36083984375
 30
0.0
  0
ENDBLK
  5
166
330
164
100
AcDbEntity
  8
0
100
AcDbBlockEnd
  0
BLOCK
  5
176
330
175
100
AcDbEntity
  8
0
100
AcDbBlockBegin
  2
*D11
 70
     1
 10
0.0
 20
0.0
 30
0.0
  3
*D11
  1
*D11
  0
LINE
  5
178
330
175
100
AcDbEntity
  8
Bemassung-[1_25]
 62
     0
370
    -2
100
AcDbLine
 10
-51050.86042421467
 20
-6848.69140625
 30
0.0
 11
-51110.36328125
 21
-6848.69140625
 31
0.0
  0
LINE
  5
179
330
175
100
AcDbEntity
  8
Bemassung-[1_25]
 62
     0
370
    -2
100
AcDbLine
 10
-51050.86042421467
 20
-6778.691406249999
 30
0.0
 11
-51110.36328125
 21
-6778.691406249999
 31
0.0
  0
LINE
  5
17A
330
175
100
AcDbEntity
  8
Bemassung-[1_25]
 62
     0
370
    -2
100
AcDbLine
 10
-51072.86328125
 20
-6886.19140625
 30
0.0
 11
-51072.86328125
 21
-6741.191406249999
 31
0.0
  0
INSERT
  5
17B
330
175
100
AcDbEntity
  8
Bemassung-[1_25]
 62
     0
370
    -2
100
AcDbBlockReference
  2
_OBLIQUE
 10
-51072.86328125
 20
-6848.69140625
 30
0.0
 41
37.5
 42
37.5
 43
37.5
 50
270.0
  0
INSERT
  5
17C
330
175
100
AcDbEntity
  8
Bemassung-[1_25]
 62
     0
370
    -2
100
AcDbBlockReference
  2
_OBLIQUE
 10
-51072.86328125
 20
-6778.691406249999
 30
0.0
 41
37.5
 42
37.5
 43
37.5
 50
90.0
  0
MTEXT
  5
17D
330
175
100
AcDbEntity
  8
Bemassung-[1_25]
 62
     0
100
AcDbMText
 10
-51136.15078125
 20
-6813.691406249999
 30
0.0
 40
75.0
 41
0.0
 46
0.0
 71
     5
 72
     1
  1
70
  7
KOPF_F
 11
0.0
 21
1.0
 31
0.0
 73
     1
 44
1.0
  0
POINT
  5
17E
330
175
100
AcDbEntity
  8
Defpoints
 62
     0
100
AcDbPoint
 10
-51013.36042421467
 20
-6848.69140625
 30
0.0
  0
POINT
  5
17F
330
175
100
AcDbEntity
  8
Defpoints
 62
     0
100
AcDbPoint
 10
-51013.36042421467
 20
-6778.691406249999
 30
0.0
  0
POINT
  5
180
330
175
100
AcDbEntity
  8
Defpoints
 62
     0
100
AcDbPoint
 10
-51072.86328125
 20
-6778.691406249999
 30
0.0
  0
ENDBLK
  5
177
330
175
100
AcDbEntity
  8
0
100
AcDbBlockEnd
  0
BLOCK
  5
187
330
186
100
AcDbEntity
  8
0
100
AcDbBlockBegin
  2
*D12
 70
     1
 10
0.0
 20
0.0
 30
0.0
  3
*D12
  1
*D12
  0
LINE
  5
189
330
186
100
AcDbEntity
  8
Bemassung-[1_25]
 62
     0
370
    -2
100
AcDbLine
 10
-51050.86042421467
 20
-4918.691589414445
 30
0.0
 11
-51110.36328125
 21
-4918.691589414445
 31
0.0
  0
LINE
  5
18A
330
186
100
AcDbEntity
  8
Bemassung-[1_25]
 62
     0
370
    -2
100
AcDbLine
 10
-51050.86042421467
 20
-4778.691589414443
 30
0.0
 11
-51110.36328125
 21
-4778.691589414443
 31
0.0
  0
LINE
  5
18B
330
186
100
AcDbEntity
  8
Bemassung-[1_25]
 62
     0
370
    -2
100
AcDbLine
 10
-51072.86328125
 20
-4956.191589414445
 30
0.0
 11
-51072.86328125
 21
-4741.191589414443
 31
0.0
  0
INSERT
  5
18C
330
186
100
AcDbEntity
  8
Bemassung-[1_25]
 62
     0
370
    -2
100
AcDbBlockReference
  2
_OBLIQUE
 10
-51072.86328125
 20
-4918.691589414445
 30
0.0
 41
37.5
 42
37.5
 43
37.5
 50
270.0
  0
INSERT
  5
18D
330
186
100
AcDbEntity
  8
Bemassung-[1_25]
 62
     0
370
    -2
100
AcDbBlockReference
  2
_OBLIQUE
 10
-51072.86328125
 20
-4778.691589414443
 30
0.0
 41
37.5
 42
37.5
 43
37.5
 50
90.0
  0
MTEXT
  5
18E
330
186
100
AcDbEntity
  8
Bemassung-[1_25]
 62
     0
100
AcDbMText
 10
-51136.15078125
 20
-4848.691589414444
 30
0.0
 40
75.0
 41
0.0
 46
0.0
 71
     5
 72
     1
  1
140
  7
KOPF_F
 11
0.0
 21
1.0
 31
0.0
 73
     1
 44
1.0
  0
POINT
  5
18F
330
186
100
AcDbEntity
  8
Defpoints
 62
     0
100
AcDbPoint
 10
-51013.36042421467
 20
-4918.691589414445
 30
0.0
  0
POINT
  5
190
330
186
100
AcDbEntity
  8
Defpoints
 62
     0
100
AcDbPoint
 10
-51013.36042421467
 20
-4778.691589414443
 30
0.0
  0
POINT
  5
191
330
186
100
AcDbEntity
  8
Defpoints
 62
     0
100
AcDbPoint
 10
-51072.86328125
 20
-4778.691589414443
 30
0.0
  0
ENDBLK
  5
188
330
186
100
AcDbEntity
  8
0
100
AcDbBlockEnd
  0
BLOCK
  5
198
330
197
100
AcDbEntity
  8
0
100
AcDbBlockBegin
  2
*D13
 70
     1
 10
0.0
 20
0.0
 30
0.0
  3
*D13
  1
*D13
  0
LINE
  5
19A
330
197
100
AcDbEntity
  8
Bemassung-[1_25]
 62
     0
370
    -2
100
AcDbLine
 10
-51050.86042421467
 20
-4173.691420817117
 30
0.0
 11
-51110.36328125
 21
-4173.691420817117
 31
0.0
  0
LINE
  5
19B
330
197
100
AcDbEntity
  8
Bemassung-[1_25]
 62
     0
370
    -2
100
AcDbLine
 10
-51050.86042421467
 20
-4103.691711366806
 30
0.0
 11
-51110.36328125
 21
-4103.691711366806
 31
0.0
  0
LINE
  5
19C
330
197
100
AcDbEntity
  8
Bemassung-[1_25]
 62
     0
370
    -2
100
AcDbLine
 10
-51072.86328125
 20
-4211.191420817117
 30
0.0
 11
-51072.86328125
 21
-4066.191711366806
 31
0.0
  0
INSERT
  5
19D
330
197
100
AcDbEntity
  8
Bemassung-[1_25]
 62
     0
370
    -2
100
AcDbBlockReference
  2
_OBLIQUE
 10
-51072.86328125
 20
-4173.691420817117
 30
0.0
 41
37.5
 42
37.5
 43
37.5
 50
270.0
  0
INSERT
  5
19E
330
197
100
AcDbEntity
  8
Bemassung-[1_25]
 62
     0
370
    -2
100
AcDbBlockReference
  2
_OBLIQUE
 10
-51072.86328125
 20
-4103.691711366806
 30
0.0
 41
37.5
 42
37.5
 43
37.5
 50
90.0
  0
MTEXT
  5
19F
330
197
100
AcDbEntity
  8
Bemassung-[1_25]
 62
     0
100
AcDbMText
 10
-51136.15078125
 20
-4138.691566091961
 30
0.0
 40
75.0
 41
0.0
 46
0.0
 71
     5
 72
     1
  1
70
  7
KOPF_F
 11
0.0
 21
1.0
 31
0.0
 73
     1
 44
1.0
  0
POINT
  5
1A0
330
197
100
AcDbEntity
  8
Defpoints
 62
     0
100
AcDbPoint
 10
-51013.36042421467
 20
-4173.691420817117
 30
0.0
  0
POINT
  5
1A1
330
197
100
AcDbEntity
  8
Defpoints
 62
     0
100
AcDbPoint
 10
-51013.36042421467
 20
-4103.691711366806
 30
0.0
  0
POINT
  5
1A2
330
197
100
AcDbEntity
  8
Defpoints
 62
     0
100
AcDbPoint
 10
-51072.86328125
 20
-4103.691711366806
 30
0.0
  0
ENDBLK
  5
199
330
197
100
AcDbEntity
  8
0
100
AcDbBlockEnd
  0
BLOCK
  5
1AB
330
1AA
100
AcDbEntity
  8
0
100
AcDbBlockBegin
  2
*D14
 70
     1
 10
0.0
 20
0.0
 30
0.0
  3
*D14
  1
*D14
  0
LINE
  5
1AD
330
1AA
100
AcDbEntity
  8
Bemassung-[1_25]
 62
     0
370
    -2
100
AcDbLine
 10
-53495.44906616211
 20
-7355.306640625
 30
0.0
 11
-53495.44906616211
 21
-7290.86083984375
 31
0.0
  0
LINE
  5
1AE
330
1AA
100
AcDbEntity
  8
Bemassung-[1_25]
 62
     0
370
    -2
100
AcDbLine
 10
-51627.94906616211
 20
-7355.306640625
 30
0.0
 11
-51627.94906616211
 21
-7290.86083984375
 31
0.0
  0
LINE
  5
1AF
330
1AA
100
AcDbEntity
  8
Bemassung-[1_25]
 62
     0
370
    -2
100
AcDbLine
 10
-53532.94906616211
 20
-7328.36083984375
 30
0.0
 11
-51590.44906616211
 21
-7328.36083984375
 31
0.0
  0
INSERT
  5
1B0
330
1AA
100
AcDbEntity
  8
Bemassung-[1_25]
 62
     0
370
    -2
100
AcDbBlockReference
  2
_OBLIQUE
 10
-53495.44906616211
 20
-7328.36083984375
 30
0.0
 41
37.5
 42
37.5
 43
37.5
 50
180.0
  0
INSERT
  5
1B1
330
1AA
100
AcDbEntity
  8
Bemassung-[1_25]
 62
     0
370
    -2
100
AcDbBlockReference
  2
_OBLIQUE
 10
-51627.94906616211
 20
-7328.36083984375
 30
0.0
 41
37.5
 42
37.5
 43
37.5
  0
MTEXT
  5
1B2
330
1AA
100
AcDbEntity
  8
Bemassung-[1_25]
 62
     0
100
AcDbMText
 10
-52561.69906616211
 20
-7265.26083984375
 30
0.0
 40
75.0
 41
0.0
 46
0.0
 71
     5
 72
     1
  1
Max im Licht
  7
KOPF_F
 73
     1
 44
1.0
  0
POINT
  5
1B3
330
1AA
100
AcDbEntity
  8
Defpoints
 62
     0
100
AcDbPoint
 10
-53495.44906616211
 20
-7392.806640625
 30
0.0
  0
POINT
  5
1B4
330
1AA
100
AcDbEntity
  8
Defpoints
 62
     0
100
AcDbPoint
 10
-51627.94906616211
 20
-7392.806640625
 30
0.0
  0
POINT
  5
1B5
330
1AA
100
AcDbEntity
  8
Defpoints
 62
     0
100
AcDbPoint
 10
-51627.94906616211
 20
-7328.36083984375
 30
0.0
  0
ENDBLK
  5
1AC
330
1AA
100
AcDbEntity
  8
0
100
AcDbBlockEnd
  0
BLOCK
  5
1BD
330
1BC
100
AcDbEntity
  8
0
100
AcDbBlockBegin
  2
*D15
 70
     1
 10
0.0
 20
0.0
 30
0.0
  3
*D15
  1
*D15
  0
LINE
  5
1BF
330
1BC
100
AcDbEntity
  8
Bemassung-[1_25]
 62
     0
370
    -2
100
AcDbLine
 10
-51627.94906616211
 20
-7355.306640625
 30
0.0
 11
-51627.94906616211
 21
-7290.86083984375
 31
0.0
  0
LINE
  5
1C0
330
1BC
100
AcDbEntity
  8
Bemassung-[1_25]
 62
     0
370
    -2
100
AcDbLine
 10
-51582.94906616211
 20
-7355.306640625
 30
0.0
 11
-51582.94906616211
 21
-7290.86083984375
 31
0.0
  0
LINE
  5
1C1
330
1BC
100
AcDbEntity
  8
Bemassung-[1_25]
 62
     0
370
    -2
100
AcDbLine
 10
-51665.44906616211
 20
-7328.36083984375
 30
0.0
 11
-51545.44906616211
 21
-7328.36083984375
 31
0.0
  0
INSERT
  5
1C2
330
1BC
100
AcDbEntity
  8
Bemassung-[1_25]
 62
     0
370
    -2
100
AcDbBlockReference
  2
_OBLIQUE
 10
-51627.94906616211
 20
-7328.36083984375
 30
0.0
 41
37.5
 42
37.5
 43
37.5
 50
180.0
  0
INSERT
  5
1C3
330
1BC
100
AcDbEntity
  8
Bemassung-[1_25]
 62
     0
370
    -2
100
AcDbBlockReference
  2
_OBLIQUE
 10
-51582.94906616211
 20
-7328.36083984375
 30
0.0
 41
37.5
 42
37.5
 43
37.5
  0
MTEXT
  5
1C4
330
1BC
100
AcDbEntity
  8
Bemassung-[1_25]
 62
     0
100
AcDbMText
 10
-51605.44906616211
 20
-7265.22333984375
 30
0.0
 40
75.0
 41
0.0
 46
0.0
 71
     5
 72
     1
  1
45
  7
KOPF_F
 73
     1
 44
1.0
  0
POINT
  5
1C5
330
1BC
100
AcDbEntity
  8
Defpoints
 62
     0
100
AcDbPoint
 10
-51627.94906616211
 20
-7392.806640625
 30
0.0
  0
POINT
  5
1C6
330
1BC
100
AcDbEntity
  8
Defpoints
 62
     0
100
AcDbPoint
 10
-51582.94906616211
 20
-7392.806640625
 30
0.0
  0
POINT
  5
1C7
330
1BC
100
AcDbEntity
  8
Defpoints
 62
     0
100
AcDbPoint
 10
-51582.94906616211
 20
-7328.36083984375
 30
0.0
  0
ENDBLK
  5
1BE
330
1BC
100
AcDbEntity
  8
0
100
AcDbBlockEnd
  0
BLOCK
  5
1D5
330
1D4
100
AcDbEntity
  8
0
100
AcDbBlockBegin
  2
*D16
 70
     1
 10
0.0
 20
0.0
 30
0.0
  3
*D16
  1
*D16
  0
LINE
  5
1D7
330
1D4
100
AcDbEntity
  8
Bemassung-[1_25]
 62
     0
370
    -2
100
AcDbLine
 10
-50480.97761171467
 20
-6778.691406249999
 30
0.0
 11
-50540.48046875
 21
-6778.691406249999
 31
0.0
  0
LINE
  5
1D8
330
1D4
100
AcDbEntity
  8
Bemassung-[1_25]
 62
     0
370
    -2
100
AcDbLine
 10
-50480.97761171467
 20
-4173.691420817117
 30
0.0
 11
-50540.48046875
 21
-4173.691420817117
 31
0.0
  0
LINE
  5
1D9
330
1D4
100
AcDbEntity
  8
Bemassung-[1_25]
 62
     0
370
    -2
100
AcDbLine
 10
-50502.98046875
 20
-6816.191406249999
 30
0.0
 11
-50502.98046875
 21
-4136.191420817117
 31
0.0
  0
INSERT
  5
1DA
330
1D4
100
AcDbEntity
  8
Bemassung-[1_25]
 62
     0
370
    -2
100
AcDbBlockReference
  2
_OBLIQUE
 10
-50502.98046875
 20
-6778.691406249999
 30
0.0
 41
37.5
 42
37.5
 43
37.5
 50
270.0
  0
INSERT
  5
1DB
330
1D4
100
AcDbEntity
  8
Bemassung-[1_25]
 62
     0
370
    -2
100
AcDbBlockReference
  2
_OBLIQUE
 10
-50502.98046875
 20
-4173.691420817117
 30
0.0
 41
37.5
 42
37.5
 43
37.5
 50
90.0
  0
MTEXT
  5
1DC
330
1D4
100
AcDbEntity
  8
Bemassung-[1_25]
 62
     0
100
AcDbMText
 10
-50566.08046875
 20
-5476.191413533557
 30
0.0
 40
75.0
 41
0.0
 46
0.0
 71
     5
 72
     1
  1
Max im Licht
  7
KOPF_F
 11
0.0
 21
1.0
 31
0.0
 73
     1
 44
1.0
  0
POINT
  5
1DD
330
1D4
100
AcDbEntity
  8
Defpoints
 62
     0
100
AcDbPoint
 10
-50443.47761171467
 20
-6778.691406249999
 30
0.0
  0
POINT
  5
1DE
330
1D4
100
AcDbEntity
  8
Defpoints
 62
     0
100
AcDbPoint
 10
-50443.47761171467
 20
-4173.691420817117
 30
0.0
  0
POINT
  5
1DF
330
1D4
100
AcDbEntity
  8
Defpoints
 62
     0
100
AcDbPoint
 10
-50502.98046875
 20
-4173.691420817117
 30
0.0
  0
ENDBLK
  5
1D6
330
1D4
100
AcDbEntity
  8
0
100
AcDbBlockEnd
  0
BLOCK
  5
1E6
330
1E5
100
AcDbEntity
  8
0
100
AcDbBlockBegin
  2
*D17
 70
     1
 10
0.0
 20
0.0
 30
0.0
  3
*D17
  1
*D17
  0
LINE
  5
1E8
330
1E5
100
AcDbEntity
  8
Bemassung-[1_25]
 62
     0
370
    -2
100
AcDbLine
 10
-50480.97761171467
 20
-6848.69140625
 30
0.0
 11
-50540.48046875
 21
-6848.69140625
 31
0.0
  0
LINE
  5
1E9
330
1E5
100
AcDbEntity
  8
Bemassung-[1_25]
 62
     0
370
    -2
100
AcDbLine
 10
-50480.97761171467
 20
-6778.691406249999
 30
0.0
 11
-50540.48046875
 21
-6778.691406249999
 31
0.0
  0
LINE
  5
1EA
330
1E5
100
AcDbEntity
  8
Bemassung-[1_25]
 62
     0
370
    -2
100
AcDbLine
 10
-50502.98046875
 20
-6886.19140625
 30
0.0
 11
-50502.98046875
 21
-6741.191406249999
 31
0.0
  0
INSERT
  5
1EB
330
1E5
100
AcDbEntity
  8
Bemassung-[1_25]
 62
     0
370
    -2
100
AcDbBlockReference
  2
_OBLIQUE
 10
-50502.98046875
 20
-6848.69140625
 30
0.0
 41
37.5
 42
37.5
 43
37.5
 50
270.0
  0
INSERT
  5
1EC
330
1E5
100
AcDbEntity
  8
Bemassung-[1_25]
 62
     0
370
    -2
100
AcDbBlockReference
  2
_OBLIQUE
 10
-50502.98046875
 20
-6778.691406249999
 30
0.0
 41
37.5
 42
37.5
 43
37.5
 50
90.0
  0
MTEXT
  5
1ED
330
1E5
100
AcDbEntity
  8
Bemassung-[1_25]
 62
     0
100
AcDbMText
 10
-50566.26796875
 20
-6813.691406249999
 30
0.0
 40
75.0
 41
0.0
 46
0.0
 71
     5
 72
     1
  1
70
  7
KOPF_F
 11
0.0
 21
1.0
 31
0.0
 73
     1
 44
1.0
  0
POINT
  5
1EE
330
1E5
100
AcDbEntity
  8
Defpoints
 62
     0
100
AcDbPoint
 10
-50443.47761171467
 20
-6848.69140625
 30
0.0
  0
POINT
  5
1EF
330
1E5
100
AcDbEntity
  8
Defpoints
 62
     0
100
AcDbPoint
 10
-50443.47761171467
 20
-6778.691406249999
 30
0.0
  0
POINT
  5
1F0
330
1E5
100
AcDbEntity
  8
Defpoints
 62
     0
100
AcDbPoint
 10
-50502.98046875
 20
-6778.691406249999
 30
0.0
  0
ENDBLK
  5
1E7
330
1E5
100
AcDbEntity
  8
0
100
AcDbBlockEnd
  0
BLOCK
  5
1F7
330
1F6
100
AcDbEntity
  8
0
100
AcDbBlockBegin
  2
*D18
 70
     1
 10
0.0
 20
0.0
 30
0.0
  3
*D18
  1
*D18
  0
LINE
  5
1F9
330
1F6
100
AcDbEntity
  8
Bemassung-[1_25]
 62
     0
370
    -2
100
AcDbLine
 10
-50480.97761171467
 20
-4173.691420817117
 30
0.0
 11
-50540.48046875
 21
-4173.691420817117
 31
0.0
  0
LINE
  5
1FA
330
1F6
100
AcDbEntity
  8
Bemassung-[1_25]
 62
     0
370
    -2
100
AcDbLine
 10
-50480.97761171467
 20
-4103.691711366806
 30
0.0
 11
-50540.48046875
 21
-4103.691711366806
 31
0.0
  0
LINE
  5
1FB
330
1F6
100
AcDbEntity
  8
Bemassung-[1_25]
 62
     0
370
    -2
100
AcDbLine
 10
-50502.98046875
 20
-4211.191420817117
 30
0.0
 11
-50502.98046875
 21
-4066.191711366806
 31
0.0
  0
INSERT
  5
1FC
330
1F6
100
AcDbEntity
  8
Bemassung-[1_25]
 62
     0
370
    -2
100
AcDbBlockReference
  2
_OBLIQUE
 10
-50502.98046875
 20
-4173.691420817117
 30
0.0
 41
37.5
 42
37.5
 43
37.5
 50
270.0
  0
INSERT
  5
1FD
330
1F6
100
AcDbEntity
  8
Bemassung-[1_25]
 62
     0
370
    -2
100
AcDbBlockReference
  2
_OBLIQUE
 10
-50502.98046875
 20
-4103.691711366806
 30
0.0
 41
37.5
 42
37.5
 43
37.5
 50
90.0
  0
MTEXT
  5
1FE
330
1F6
100
AcDbEntity
  8
Bemassung-[1_25]
 62
     0
100
AcDbMText
 10
-50566.26796875
 20
-4138.691566091961
 30
0.0
 40
75.0
 41
0.0
 46
0.0
 71
     5
 72
     1
  1
70
  7
KOPF_F
 11
0.0
 21
1.0
 31
0.0
 73
     1
 44
1.0
  0
POINT
  5
1FF
330
1F6
100
AcDbEntity
  8
Defpoints
 62
     0
100
AcDbPoint
 10
-50443.47761171467
 20
-4173.691420817117
 30
0.0
  0
POINT
  5
200
330
1F6
100
AcDbEntity
  8
Defpoints
 62
     0
100
AcDbPoint
 10
-50443.47761171467
 20
-4103.691711366806
 30
0.0
  0
POINT
  5
201
330
1F6
100
AcDbEntity
  8
Defpoints
 62
     0
100
AcDbPoint
 10
-50502.98046875
 20
-4103.691711366806
 30
0.0
  0
ENDBLK
  5
1F8
330
1F6
100
AcDbEntity
  8
0
100
AcDbBlockEnd
  0
BLOCK
  5
23B
330
23A
100
AcDbEntity
  8
0
100
AcDbBlockBegin
  2
*D19
 70
     1
 10
0.0
 20
0.0
 30
0.0
  3
*D19
  1
*D19
  0
LINE
  5
23D
330
23A
100
AcDbEntity
  8
Bemassung-[1_25]
 62
     0
370
    -2
100
AcDbLine
 10
-51050.86042421467
 20
-4778.691589414443
 30
0.0
 11
-51110.36328125
 21
-4778.691589414443
 31
0.0
  0
LINE
  5
23E
330
23A
100
AcDbEntity
  8
Bemassung-[1_25]
 62
     0
370
    -2
100
AcDbLine
 10
-51050.86042421467
 20
-4173.691420817117
 30
0.0
 11
-51110.36328125
 21
-4173.691420817117
 31
0.0
  0
LINE
  5
23F
330
23A
100
AcDbEntity
  8
Bemassung-[1_25]
 62
     0
370
    -2
100
AcDbLine
 10
-51072.86328125
 20
-4816.191589414443
 30
0.0
 11
-51072.86328125
 21
-4136.191420817117
 31
0.0
  0
INSERT
  5
240
330
23A
100
AcDbEntity
  8
Bemassung-[1_25]
 62
     0
370
    -2
100
AcDbBlockReference
  2
_OBLIQUE
 10
-51072.86328125
 20
-4778.691589414443
 30
0.0
 41
37.5
 42
37.5
 43
37.5
 50
270.0
  0
INSERT
  5
241
330
23A
100
AcDbEntity
  8
Bemassung-[1_25]
 62
     0
370
    -2
100
AcDbBlockReference
  2
_OBLIQUE
 10
-51072.86328125
 20
-4173.691420817117
 30
0.0
 41
37.5
 42
37.5
 43
37.5
 50
90.0
  0
MTEXT
  5
242
330
23A
100
AcDbEntity
  8
Bemassung-[1_25]
 62
     0
100
AcDbMText
 10
-51135.96328125
 20
-4476.191505115779
 30
0.0
 40
75.0
 41
0.0
 46
0.0
 71
     5
 72
     1
  1
Max im Licht
  7
KOPF_F
 11
0.0
 21
1.0
 31
0.0
 73
     1
 44
1.0
  0
POINT
  5
243
330
23A
100
AcDbEntity
  8
Defpoints
 62
     0
100
AcDbPoint
 10
-51013.36042421467
 20
-4778.691589414443
 30
0.0
  0
POINT
  5
244
330
23A
100
AcDbEntity
  8
Defpoints
 62
     0
100
AcDbPoint
 10
-51013.36042421467
 20
-4173.691420817117
 30
0.0
  0
POINT
  5
245
330
23A
100
AcDbEntity
  8
Defpoints
 62
     0
100
AcDbPoint
 10
-51072.86328125
 20
-4173.691420817117
 30
0.0
  0
ENDBLK
  5
23C
330
23A
100
AcDbEntity
  8
0
100
AcDbBlockEnd
  0
BLOCK
  5
24C
330
24B
100
AcDbEntity
  8
0
100
AcDbBlockBegin
  2
*D20
 70
     1
 10
0.0
 20
0.0
 30
0.0
  3
*D20
  1
*D20
  0
LINE
  5
24E
330
24B
100
AcDbEntity
  8
Bemassung-[1_5]
 62
     0
370
    -2
100
AcDbLine
 10
-53569.44906616211
 20
-7385.306640625
 30
0.0
 11
-53569.44906616211
 21
-7368.86181640625
 31
0.0
  0
LINE
  5
24F
330
24B
100
AcDbEntity
  8
Bemassung-[1_5]
 62
     0
370
    -2
100
AcDbLine
 10
-53495.44906616211
 20
-7385.306640625
 30
0.0
 11
-53495.44906616211
 21
-7368.86181640625
 31
0.0
  0
LINE
  5
250
330
24B
100
AcDbEntity
  8
Bemassung-[1_5]
 62
     0
370
    -2
100
AcDbLine
 10
-53576.94906616211
 20
-7376.36181640625
 30
0.0
 11
-53487.94906616211
 21
-7376.36181640625
 31
0.0
  0
INSERT
  5
251
330
24B
100
AcDbEntity
  8
Bemassung-[1_5]
 62
     0
370
    -2
100
AcDbBlockReference
  2
_OBLIQUE
 10
-53569.44906616211
 20
-7376.36181640625
 30
0.0
 41
7.5
 42
7.5
 43
7.5
 50
180.0
  0
INSERT
  5
252
330
24B
100
AcDbEntity
  8
Bemassung-[1_5]
 62
     0
370
    -2
100
AcDbBlockReference
  2
_OBLIQUE
 10
-53495.44906616211
 20
-7376.36181640625
 30
0.0
 41
7.5
 42
7.5
 43
7.5
  0
MTEXT
  5
253
330
24B
100
AcDbEntity
  8
Bemassung-[1_5]
 62
     0
100
AcDbMText
 10
-53532.44906616211
 20
-7363.86181640625
 30
0.0
 40
15.0
 41
0.0
 46
0.0
 71
     5
 72
     1
  1
74
  7
KOPF_F
 73
     1
 44
1.0
  0
POINT
  5
254
330
24B
100
AcDbEntity
  8
Defpoints
 62
     0
100
AcDbPoint
 10
-53569.44906616211
 20
-7392.806640625
 30
0.0
  0
POINT
  5
255
330
24B
100
AcDbEntity
  8
Defpoints
 62
     0
100
AcDbPoint
 10
-53495.44906616211
 20
-7392.806640625
 30
0.0
  0
POINT
  5
256
330
24B
100
AcDbEntity
  8
Defpoints
 62
     0
100
AcDbPoint
 10
-53495.44906616211
 20
-7376.36181640625
 30
0.0
  0
ENDBLK
  5
24D
330
24B
100
AcDbEntity
  8
0
100
AcDbBlockEnd
  0
BLOCK
  5
25D
330
25C
100
AcDbEntity
  8
0
100
AcDbBlockBegin
  2
*D21
 70
     1
 10
0.0
 20
0.0
 30
0.0
  3
*D21
  1
*D21
  0
LINE
  5
25F
330
25C
100
AcDbEntity
  8
Bemassung-[1_5]
 62
     0
370
    -2
100
AcDbLine
 10
-54647.44906616211
 20
-9066.06689453125
 30
0.0
 11
-54665.421875
 21
-9066.06689453125
 31
0.0
  0
LINE
  5
260
330
25C
100
AcDbEntity
  8
Bemassung-[1_5]
 62
     0
370
    -2
100
AcDbLine
 10
-54578.44906616211
 20
-8952.56689453125
 30
0.0
 11
-54665.421875
 21
-8952.56689453125
 31
0.0
  0
LINE
  5
261
330
25C
100
AcDbEntity
  8
Bemassung-[1_5]
 62
     0
370
    -2
100
AcDbLine
 10
-54657.921875
 20
-9073.56689453125
 30
0.0
 11
-54657.921875
 21
-8945.06689453125
 31
0.0
  0
INSERT
  5
262
330
25C
100
AcDbEntity
  8
Bemassung-[1_5]
 62
     0
370
    -2
100
AcDbBlockReference
  2
_OBLIQUE
 10
-54657.921875
 20
-9066.06689453125
 30
0.0
 41
7.5
 42
7.5
 43
7.5
 50
270.0
  0
INSERT
  5
263
330
25C
100
AcDbEntity
  8
Bemassung-[1_5]
 62
     0
370
    -2
100
AcDbBlockReference
  2
_OBLIQUE
 10
-54657.921875
 20
-8952.56689453125
 30
0.0
 41
7.5
 42
7.5
 43
7.5
 50
90.0
  0
MTEXT
  5
264
330
25C
100
AcDbEntity
  8
Bemassung-[1_5]
 62
     0
100
AcDbMText
 10
-54670.579375
 20
-9009.31689453125
 30
0.0
 40
15.0
 41
0.0
 46
0.0
 71
     5
 72
     1
  1
113.5
  7
KOPF_F
 11
0.0
 21
1.0
 31
0.0
 73
     1
 44
1.0
  0
POINT
  5
265
330
25C
100
AcDbEntity
  8
Defpoints
 62
     0
100
AcDbPoint
 10
-54639.94906616211
 20
-9066.06689453125
 30
0.0
  0
POINT
  5
266
330
25C
100
AcDbEntity
  8
Defpoints
 62
     0
100
AcDbPoint
 10
-54570.94906616211
 20
-8952.56689453125
 30
0.0
  0
POINT
  5
267
330
25C
100
AcDbEntity
  8
Defpoints
 62
     0
100
AcDbPoint
 10
-54657.921875
 20
-8952.56689453125
 30
0.0
  0
ENDBLK
  5
25E
330
25C
100
AcDbEntity
  8
0
100
AcDbBlockEnd
  0
BLOCK
  5
286
330
285
100
AcDbEntity
  8
0
100
AcDbBlockBegin
  2
*D22
 70
     1
 10
0.0
 20
0.0
 30
0.0
  3
*D22
  1
*D22
  0
LINE
  5
288
330
285
100
AcDbEntity
  8
Bemassung-[1_5]
 62
     0
370
    -2
100
AcDbLine
 10
-54578.44906616211
 20
-8952.56689453125
 30
0.0
 11
-54620.4453125
 21
-8952.566894531252
 31
0.0
  0
LINE
  5
289
330
285
100
AcDbEntity
  8
Bemassung-[1_5]
 62
     0
370
    -2
100
AcDbLine
 10
-54586.44906616211
 20
-9036.06689453125
 30
0.0
 11
-54620.4453125
 21
-9036.06689453125
 31
0.0
  0
LINE
  5
28A
330
285
100
AcDbEntity
  8
Bemassung-[1_5]
 62
     0
370
    -2
100
AcDbLine
 10
-54612.9453125
 20
-8945.066894531252
 30
0.0
 11
-54612.9453125
 21
-9043.56689453125
 31
0.0
  0
INSERT
  5
28B
330
285
100
AcDbEntity
  8
Bemassung-[1_5]
 62
     0
370
    -2
100
AcDbBlockReference
  2
_OBLIQUE
 10
-54612.9453125
 20
-8952.566894531252
 30
0.0
 41
7.5
 42
7.5
 43
7.5
 50
90.0
  0
INSERT
  5
28C
330
285
100
AcDbEntity
  8
Bemassung-[1_5]
 62
     0
370
    -2
100
AcDbBlockReference
  2
_OBLIQUE
 10
-54612.9453125
 20
-9036.06689453125
 30
0.0
 41
7.5
 42
7.5
 43
7.5
 50
270.0
  0
MTEXT
  5
28D
330
285
100
AcDbEntity
  8
Bemassung-[1_5]
 62
     0
100
AcDbMText
 10
-54625.6028125
 20
-8994.31689453125
 30
0.0
 40
15.0
 41
0.0
 46
0.0
 71
     5
 72
     1
  1
83.5
  7
KOPF_F
 11
0.0
 21
1.0
 31
0.0
 73
     1
 44
1.0
  0
POINT
  5
28E
330
285
100
AcDbEntity
  8
Defpoints
 62
     0
100
AcDbPoint
 10
-54570.94906616211
 20
-8952.56689453125
 30
0.0
  0
POINT
  5
28F
330
285
100
AcDbEntity
  8
Defpoints
 62
     0
100
AcDbPoint
 10
-54578.94906616211
 20
-9036.06689453125
 30
0.0
  0
POINT
  5
290
330
285
100
AcDbEntity
  8
Defpoints
 62
     0
100
AcDbPoint
 10
-54612.9453125
 20
-9036.066894531252
 30
0.0
  0
ENDBLK
  5
287
330
285
100
AcDbEntity
  8
0
100
AcDbBlockEnd
  0
BLOCK
  5
297
330
296
100
AcDbEntity
  8
0
100
AcDbBlockBegin
  2
*D23
 70
     1
 10
0.0
 20
0.0
 30
0.0
  3
*D23
  1
*D23
  0
LINE
  5
299
330
296
100
AcDbEntity
  8
Bemassung-[1_5]
 62
     0
370
    -2
100
AcDbLine
 10
-54500.94906616211
 20
-8945.06689453125
 30
0.0
 11
-54500.94906616211
 21
-8909.0107421875
 31
0.0
  0
LINE
  5
29A
330
296
100
AcDbEntity
  8
Bemassung-[1_5]
 62
     0
370
    -2
100
AcDbLine
 10
-54578.94906616211
 20
-8945.06640625
 30
0.0
 11
-54578.94906616211
 21
-8909.0107421875
 31
0.0
  0
LINE
  5
29B
330
296
100
AcDbEntity
  8
Bemassung-[1_5]
 62
     0
370
    -2
100
AcDbLine
 10
-54493.44906616211
 20
-8916.5107421875
 30
0.0
 11
-54586.44906616211
 21
-8916.5107421875
 31
0.0
  0
INSERT
  5
29C
330
296
100
AcDbEntity
  8
Bemassung-[1_5]
 62
     0
370
    -2
100
AcDbBlockReference
  2
_OBLIQUE
 10
-54500.94906616211
 20
-8916.5107421875
 30
0.0
 41
7.5
 42
7.5
 43
7.5
  0
INSERT
  5
29D
330
296
100
AcDbEntity
  8
Bemassung-[1_5]
 62
     0
370
    -2
100
AcDbBlockReference
  2
_OBLIQUE
 10
-54578.94906616211
 20
-8916.5107421875
 30
0.0
 41
7.5
 42
7.5
 43
7.5
 50
180.0
  0
MTEXT
  5
29E
330
296
100
AcDbEntity
  8
Bemassung-[1_5]
 62
     0
100
AcDbMText
 10
-54539.94906616211
 20
-8903.8532421875
 30
0.0
 40
15.0
 41
0.0
 46
0.0
 71
     5
 72
     1
  1
78
  7
KOPF_F
 73
     1
 44
1.0
  0
POINT
  5
29F
330
296
100
AcDbEntity
  8
Defpoints
 62
     0
100
AcDbPoint
 10
-54500.94906616211
 20
-8952.56689453125
 30
0.0
  0
POINT
  5
2A0
330
296
100
AcDbEntity
  8
Defpoints
 62
     0
100
AcDbPoint
 10
-54578.94906616211
 20
-8952.56640625
 30
0.0
  0
POINT
  5
2A1
330
296
100
AcDbEntity
  8
Defpoints
 62
     0
100
AcDbPoint
 10
-54578.94906616211
 20
-8916.5107421875
 30
0.0
  0
ENDBLK
  5
298
330
296
100
AcDbEntity
  8
0
100
AcDbBlockEnd
  0
BLOCK
  5
2A8
330
2A7
100
AcDbEntity
  8
0
100
AcDbBlockBegin
  2
*D24
 70
     1
 10
0.0
 20
0.0
 30
0.0
  3
*D24
  1
*D24
  0
LINE
  5
2AA
330
2A7
100
AcDbEntity
  8
Bemassung-[1_5]
 62
     0
370
    -2
100
AcDbLine
 10
-54499.94906616211
 20
-9791.52099609375
 30
0.0
 11
-54499.94906616211
 21
-9730.6279296875
 31
0.0
  0
LINE
  5
2AB
330
2A7
100
AcDbEntity
  8
Bemassung-[1_5]
 62
     0
370
    -2
100
AcDbLine
 10
-54643.94906616211
 20
-9791.52099609375
 30
0.0
 11
-54643.94906616211
 21
-9730.6279296875
 31
0.0
  0
LINE
  5
2AC
330
2A7
100
AcDbEntity
  8
Bemassung-[1_5]
 62
     0
370
    -2
100
AcDbLine
 10
-54492.44906616211
 20
-9738.1279296875
 30
0.0
 11
-54651.44906616211
 21
-9738.1279296875
 31
0.0
  0
INSERT
  5
2AD
330
2A7
100
AcDbEntity
  8
Bemassung-[1_5]
 62
     0
370
    -2
100
AcDbBlockReference
  2
_OBLIQUE
 10
-54499.94906616211
 20
-9738.1279296875
 30
0.0
 41
7.5
 42
7.5
 43
7.5
  0
INSERT
  5
2AE
330
2A7
100
AcDbEntity
  8
Bemassung-[1_5]
 62
     0
370
    -2
100
AcDbBlockReference
  2
_OBLIQUE
 10
-54643.94906616211
 20
-9738.1279296875
 30
0.0
 41
7.5
 42
7.5
 43
7.5
 50
180.0
  0
MTEXT
  5
2AF
330
2A7
100
AcDbEntity
  8
Bemassung-[1_5]
 62
     0
100
AcDbMText
 10
-54571.94906616211
 20
-9725.5979296875
 30
0.0
 40
15.0
 41
0.0
 46
0.0
 71
     5
 72
     1
  1
144
  7
KOPF_F
 73
     1
 44
1.0
  0
POINT
  5
2B0
330
2A7
100
AcDbEntity
  8
Defpoints
 62
     0
100
AcDbPoint
 10
-54499.94906616211
 20
-9799.02099609375
 30
0.0
  0
POINT
  5
2B1
330
2A7
100
AcDbEntity
  8
Defpoints
 62
     0
100
AcDbPoint
 10
-54643.94906616211
 20
-9799.02099609375
 30
0.0
  0
POINT
  5
2B2
330
2A7
100
AcDbEntity
  8
Defpoints
 62
     0
100
AcDbPoint
 10
-54643.94906616211
 20
-9738.1279296875
 30
0.0
  0
ENDBLK
  5
2A9
330
2A7
100
AcDbEntity
  8
0
100
AcDbBlockEnd
  0
BLOCK
  5
2B9
330
2B8
100
AcDbEntity
  8
0
100
AcDbBlockBegin
  2
*D25
 70
     1
 10
0.0
 20
0.0
 30
0.0
  3
*D25
  1
*D25
  0
LINE
  5
2BB
330
2B8
100
AcDbEntity
  8
Bemassung-[1_5]
 62
     0
370
    -2
100
AcDbLine
 10
-54569.94906616211
 20
-9791.52099609375
 30
0.0
 11
-54569.94906616211
 21
-9768.140625
 31
0.0
  0
LINE
  5
2BC
330
2B8
100
AcDbEntity
  8
Bemassung-[1_5]
 62
     0
370
    -2
100
AcDbLine
 10
-54599.94906616211
 20
-9791.52099609375
 30
0.0
 11
-54599.94906616211
 21
-9768.140625
 31
0.0
  0
LINE
  5
2BD
330
2B8
100
AcDbEntity
  8
Bemassung-[1_5]
 62
     0
370
    -2
100
AcDbLine
 10
-54562.44906616211
 20
-9775.640625
 30
0.0
 11
-54607.44906616211
 21
-9775.640625
 31
0.0
  0
INSERT
  5
2BE
330
2B8
100
AcDbEntity
  8
Bemassung-[1_5]
 62
     0
370
    -2
100
AcDbBlockReference
  2
_OBLIQUE
 10
-54569.94906616211
 20
-9775.640625
 30
0.0
 41
7.5
 42
7.5
 43
7.5
  0
INSERT
  5
2BF
330
2B8
100
AcDbEntity
  8
Bemassung-[1_5]
 62
     0
370
    -2
100
AcDbBlockReference
  2
_OBLIQUE
 10
-54599.94906616211
 20
-9775.640625
 30
0.0
 41
7.5
 42
7.5
 43
7.5
 50
180.0
  0
MTEXT
  5
2C0
330
2B8
100
AcDbEntity
  8
Bemassung-[1_5]
 62
     0
100
AcDbMText
 10
-54584.94906616211
 20
-9762.983125
 30
0.0
 40
15.0
 41
0.0
 46
0.0
 71
     5
 72
     1
  1
max.30
  7
KOPF_F
 73
     1
 44
1.0
  0
POINT
  5
2C1
330
2B8
100
AcDbEntity
  8
Defpoints
 62
     0
100
AcDbPoint
 10
-54569.94906616211
 20
-9799.02099609375
 30
0.0
  0
POINT
  5
2C2
330
2B8
100
AcDbEntity
  8
Defpoints
 62
     0
100
AcDbPoint
 10
-54599.94906616211
 20
-9799.02099609375
 30
0.0
  0
POINT
  5
2C3
330
2B8
100
AcDbEntity
  8
Defpoints
 62
     0
100
AcDbPoint
 10
-54599.94906616211
 20
-9775.640625
 30
0.0
  0
ENDBLK
  5
2BA
330
2B8
100
AcDbEntity
  8
0
100
AcDbBlockEnd
  0
BLOCK
  5
2CA
330
2C9
100
AcDbEntity
  8
0
100
AcDbBlockBegin
  2
*D26
 70
     1
 10
0.0
 20
0.0
 30
0.0
  3
*D26
  1
*D26
  0
LINE
  5
2CC
330
2C9
100
AcDbEntity
  8
Bemassung-[1_5]
 62
     0
370
    -2
100
AcDbLine
 10
-54643.44906616209
 20
-9912.52099609375
 30
0.0
 11
-54680.89453125
 21
-9912.52099609375
 31
0.0
  0
LINE
  5
2CD
330
2C9
100
AcDbEntity
  8
Bemassung-[1_5]
 62
     0
370
    -2
100
AcDbLine
 10
-54640.44906616211
 20
-9799.02099609375
 30
0.0
 11
-54680.89453125
 21
-9799.02099609375
 31
0.0
  0
LINE
  5
2CE
330
2C9
100
AcDbEntity
  8
Bemassung-[1_5]
 62
     0
370
    -2
100
AcDbLine
 10
-54673.39453125
 20
-9920.02099609375
 30
0.0
 11
-54673.39453125
 21
-9791.52099609375
 31
0.0
  0
INSERT
  5
2CF
330
2C9
100
AcDbEntity
  8
Bemassung-[1_5]
 62
     0
370
    -2
100
AcDbBlockReference
  2
_OBLIQUE
 10
-54673.39453125
 20
-9912.52099609375
 30
0.0
 41
7.5
 42
7.5
 43
7.5
 50
270.0
  0
INSERT
  5
2D0
330
2C9
100
AcDbEntity
  8
Bemassung-[1_5]
 62
     0
370
    -2
100
AcDbBlockReference
  2
_OBLIQUE
 10
-54673.39453125
 20
-9799.02099609375
 30
0.0
 41
7.5
 42
7.5
 43
7.5
 50
90.0
  0
MTEXT
  5
2D1
330
2C9
100
AcDbEntity
  8
Bemassung-[1_5]
 62
     0
100
AcDbMText
 10
-54686.05203125
 20
-9855.77099609375
 30
0.0
 40
15.0
 41
0.0
 46
0.0
 71
     5
 72
     1
  1
113.5
  7
KOPF_F
 11
0.0
 21
1.0
 31
0.0
 73
     1
 44
1.0
  0
POINT
  5
2D2
330
2C9
100
AcDbEntity
  8
Defpoints
 62
     0
100
AcDbPoint
 10
-54635.94906616209
 20
-9912.52099609375
 30
0.0
  0
POINT
  5
2D3
330
2C9
100
AcDbEntity
  8
Defpoints
 62
     0
100
AcDbPoint
 10
-54632.94906616211
 20
-9799.02099609375
 30
0.0
  0
POINT
  5
2D4
330
2C9
100
AcDbEntity
  8
Defpoints
 62
     0
100
AcDbPoint
 10
-54673.39453125
 20
-9799.02099609375
 30
0.0
  0
ENDBLK
  5
2CB
330
2C9
100
AcDbEntity
  8
0
100
AcDbBlockEnd
  0
BLOCK
  5
2DB
330
2DA
100
AcDbEntity
  8
0
100
AcDbBlockBegin
  2
*D27
 70
     1
 10
0.0
 20
0.0
 30
0.0
  3
*D27
  1
*D27
  0
LINE
  5
2DD
330
2DA
100
AcDbEntity
  8
Bemassung-[1_5]
 62
     0
370
    -2
100
AcDbLine
 10
-51020.86042421467
 20
-4173.691711366807
 30
0.0
 11
-51038.8203125
 21
-4173.691711366806
 31
0.0
  0
LINE
  5
2DE
330
2DA
100
AcDbEntity
  8
Bemassung-[1_5]
 62
     0
370
    -2
100
AcDbLine
 10
-51020.86042421467
 20
-4095.691711366806
 30
0.0
 11
-51038.8203125
 21
-4095.691711366806
 31
0.0
  0
LINE
  5
2DF
330
2DA
100
AcDbEntity
  8
Bemassung-[1_5]
 62
     0
370
    -2
100
AcDbLine
 10
-51031.3203125
 20
-4181.191711366806
 30
0.0
 11
-51031.3203125
 21
-4088.191711366806
 31
0.0
  0
INSERT
  5
2E0
330
2DA
100
AcDbEntity
  8
Bemassung-[1_5]
 62
     0
370
    -2
100
AcDbBlockReference
  2
_OBLIQUE
 10
-51031.3203125
 20
-4173.691711366806
 30
0.0
 41
7.5
 42
7.5
 43
7.5
 50
270.0
  0
INSERT
  5
2E1
330
2DA
100
AcDbEntity
  8
Bemassung-[1_5]
 62
     0
370
    -2
100
AcDbBlockReference
  2
_OBLIQUE
 10
-51031.3203125
 20
-4095.691711366806
 30
0.0
 41
7.5
 42
7.5
 43
7.5
 50
90.0
  0
MTEXT
  5
2E2
330
2DA
100
AcDbEntity
  8
Bemassung-[1_5]
 62
     0
100
AcDbMText
 10
-51043.9778125
 20
-4134.691711366807
 30
0.0
 40
15.0
 41
0.0
 46
0.0
 71
     5
 72
     1
  1
78
  7
KOPF_F
 11
0.0
 21
1.0
 31
0.0
 73
     1
 44
1.0
  0
POINT
  5
2E3
330
2DA
100
AcDbEntity
  8
Defpoints
 62
     0
100
AcDbPoint
 10
-51013.36042421467
 20
-4173.691711366807
 30
0.0
  0
POINT
  5
2E4
330
2DA
100
AcDbEntity
  8
Defpoints
 62
     0
100
AcDbPoint
 10
-51013.36042421467
 20
-4095.691711366806
 30
0.0
  0
POINT
  5
2E5
330
2DA
100
AcDbEntity
  8
Defpoints
 62
     0
100
AcDbPoint
 10
-51031.3203125
 20
-4095.691711366806
 30
0.0
  0
ENDBLK
  5
2DC
330
2DA
100
AcDbEntity
  8
0
100
AcDbBlockEnd
  0
BLOCK
  5
2EC
330
2EB
100
AcDbEntity
  8
0
100
AcDbBlockBegin
  2
*D28
 70
     1
 10
0.0
 20
0.0
 30
0.0
  3
*D28
  1
*D28
  0
LINE
  5
2EE
330
2EB
100
AcDbEntity
  8
Bemassung-[1_5]
 62
     0
370
    -2
100
AcDbLine
 10
-50975.86042421467
 20
-4103.691711366806
 30
0.0
 11
-50975.86042421467
 21
-4103.691711366806
 31
0.0
  0
LINE
  5
2EF
330
2EB
100
AcDbEntity
  8
Bemassung-[1_5]
 62
     0
370
    -2
100
AcDbLine
 10
-50975.86042421467
 20
-4095.691711366806
 30
0.0
 11
-50975.86042421467
 21
-4095.691711366806
 31
0.0
  0
LINE
  5
2F0
330
2EB
100
AcDbEntity
  8
Bemassung-[1_5]
 62
     0
370
    -2
100
AcDbLine
 10
-50968.36042421467
 20
-4111.191711366806
 30
0.0
 11
-50968.36042421467
 21
-4088.191711366806
 31
0.0
  0
INSERT
  5
2F1
330
2EB
100
AcDbEntity
  8
Bemassung-[1_5]
 62
     0
370
    -2
100
AcDbBlockReference
  2
_OBLIQUE
 10
-50968.36042421467
 20
-4103.691711366806
 30
0.0
 41
7.5
 42
7.5
 43
7.5
 50
270.0
  0
INSERT
  5
2F2
330
2EB
100
AcDbEntity
  8
Bemassung-[1_5]
 62
     0
370
    -2
100
AcDbBlockReference
  2
_OBLIQUE
 10
-50968.36042421467
 20
-4095.691711366806
 30
0.0
 41
7.5
 42
7.5
 43
7.5
 50
90.0
  0
MTEXT
  5
2F3
330
2EB
100
AcDbEntity
  8
Bemassung-[1_5]
 62
     0
100
AcDbMText
 10
-50981.01792421467
 20
-4099.691711366806
 30
0.0
 40
15.0
 41
0.0
 46
0.0
 71
     5
 72
     1
  1
8
  7
KOPF_F
 11
0.0
 21
1.0
 31
0.0
 73
     1
 44
1.0
  0
POINT
  5
2F4
330
2EB
100
AcDbEntity
  8
Defpoints
 62
     0
100
AcDbPoint
 10
-50968.36042421467
 20
-4103.691711366806
 30
0.0
  0
POINT
  5
2F5
330
2EB
100
AcDbEntity
  8
Defpoints
 62
     0
100
AcDbPoint
 10
-50968.36042421467
 20
-4095.691711366806
 30
0.0
  0
POINT
  5
2F6
330
2EB
100
AcDbEntity
  8
Defpoints
 62
     0
100
AcDbPoint
 10
-50968.36042421467
 20
-4095.691711366806
 30
0.0
  0
ENDBLK
  5
2ED
330
2EB
100
AcDbEntity
  8
0
100
AcDbBlockEnd
  0
BLOCK
  5
2FD
330
2FC
100
AcDbEntity
  8
0
100
AcDbBlockBegin
  2
*D29
 70
     1
 10
0.0
 20
0.0
 30
0.0
  3
*D29
  1
*D29
  0
LINE
  5
2FF
330
2FC
100
AcDbEntity
  8
Bemassung-[1_5]
 62
     0
370
    -2
100
AcDbLine
 10
-51020.86042421467
 20
-4778.691589414443
 30
0.0
 11
-51033.62415134579
 21
-4778.691589414443
 31
0.0
  0
LINE
  5
300
330
2FC
100
AcDbEntity
  8
Bemassung-[1_5]
 62
     0
370
    -2
100
AcDbLine
 10
-51020.86042421467
 20
-4918.691589414445
 30
0.0
 11
-51033.62415134579
 21
-4918.691589414445
 31
0.0
  0
LINE
  5
301
330
2FC
100
AcDbEntity
  8
Bemassung-[1_5]
 62
     0
370
    -2
100
AcDbLine
 10
-51026.12415134579
 20
-4771.191589414443
 30
0.0
 11
-51026.12415134579
 21
-4926.191589414445
 31
0.0
  0
INSERT
  5
302
330
2FC
100
AcDbEntity
  8
Bemassung-[1_5]
 62
     0
370
    -2
100
AcDbBlockReference
  2
_OBLIQUE
 10
-51026.12415134579
 20
-4778.691589414443
 30
0.0
 41
7.5
 42
7.5
 43
7.5
 50
90.0
  0
INSERT
  5
303
330
2FC
100
AcDbEntity
  8
Bemassung-[1_5]
 62
     0
370
    -2
100
AcDbBlockReference
  2
_OBLIQUE
 10
-51026.12415134579
 20
-4918.691589414445
 30
0.0
 41
7.5
 42
7.5
 43
7.5
 50
270.0
  0
MTEXT
  5
304
330
2FC
100
AcDbEntity
  8
Bemassung-[1_5]
 62
     0
100
AcDbMText
 10
-51038.78165134579
 20
-4848.691589414444
 30
0.0
 40
15.0
 41
0.0
 46
0.0
 71
     5
 72
     1
  1
140
  7
KOPF_F
 11
0.0
 21
1.0
 31
0.0
 73
     1
 44
1.0
  0
POINT
  5
305
330
2FC
100
AcDbEntity
  8
Defpoints
 62
     0
100
AcDbPoint
 10
-51013.36042421467
 20
-4778.691589414443
 30
0.0
  0
POINT
  5
306
330
2FC
100
AcDbEntity
  8
Defpoints
 62
     0
100
AcDbPoint
 10
-51013.36042421467
 20
-4918.691589414445
 30
0.0
  0
POINT
  5
307
330
2FC
100
AcDbEntity
  8
Defpoints
 62
     0
100
AcDbPoint
 10
-51026.12415134579
 20
-4918.691589414445
 30
0.0
  0
ENDBLK
  5
2FE
330
2FC
100
AcDbEntity
  8
0
100
AcDbBlockEnd
  0
BLOCK
  5
30E
330
30D
100
AcDbEntity
  8
0
100
AcDbBlockBegin
  2
*D30
 70
     1
 10
0.0
 20
0.0
 30
0.0
  3
*D30
  1
*D30
  0
LINE
  5
310
330
30D
100
AcDbEntity
  8
Bemassung-[1_5]
 62
     0
370
    -2
100
AcDbLine
 10
-51020.86042421467
 20
-6778.691406249999
 30
0.0
 11
-51038.99905976356
 21
-6778.691406249999
 31
0.0
  0
LINE
  5
311
330
30D
100
AcDbEntity
  8
Bemassung-[1_5]
 62
     0
370
    -2
100
AcDbLine
 10
-51020.86042421467
 20
-6856.69140625
 30
0.0
 11
-51038.99905976356
 21
-6856.69140625
 31
0.0
  0
LINE
  5
312
330
30D
100
AcDbEntity
  8
Bemassung-[1_5]
 62
     0
370
    -2
100
AcDbLine
 10
-51031.49905976356
 20
-6771.191406249999
 30
0.0
 11
-51031.49905976356
 21
-6864.19140625
 31
0.0
  0
INSERT
  5
313
330
30D
100
AcDbEntity
  8
Bemassung-[1_5]
 62
     0
370
    -2
100
AcDbBlockReference
  2
_OBLIQUE
 10
-51031.49905976356
 20
-6778.691406249999
 30
0.0
 41
7.5
 42
7.5
 43
7.5
 50
90.0
  0
INSERT
  5
314
330
30D
100
AcDbEntity
  8
Bemassung-[1_5]
 62
     0
370
    -2
100
AcDbBlockReference
  2
_OBLIQUE
 10
-51031.49905976356
 20
-6856.69140625
 30
0.0
 41
7.5
 42
7.5
 43
7.5
 50
270.0
  0
MTEXT
  5
315
330
30D
100
AcDbEntity
  8
Bemassung-[1_5]
 62
     0
100
AcDbMText
 10
-51044.15655976356
 20
-6817.69140625
 30
0.0
 40
15.0
 41
0.0
 46
0.0
 71
     5
 72
     1
  1
78
  7
KOPF_F
 11
0.0
 21
1.0
 31
0.0
 73
     1
 44
1.0
  0
POINT
  5
316
330
30D
100
AcDbEntity
  8
Defpoints
 62
     0
100
AcDbPoint
 10
-51013.36042421467
 20
-6778.691406249999
 30
0.0
  0
POINT
  5
317
330
30D
100
AcDbEntity
  8
Defpoints
 62
     0
100
AcDbPoint
 10
-51013.36042421467
 20
-6856.69140625
 30
0.0
  0
POINT
  5
318
330
30D
100
AcDbEntity
  8
Defpoints
 62
     0
100
AcDbPoint
 10
-51031.49905976356
 20
-6856.69140625
 30
0.0
  0
ENDBLK
  5
30F
330
30D
100
AcDbEntity
  8
0
100
AcDbBlockEnd
  0
BLOCK
  5
31F
330
31E
100
AcDbEntity
  8
0
100
AcDbBlockBegin
  2
*D31
 70
     1
 10
0.0
 20
0.0
 30
0.0
  3
*D31
  1
*D31
  0
LINE
  5
321
330
31E
100
AcDbEntity
  8
Bemassung-[1_5]
 62
     0
370
    -2
100
AcDbLine
 10
-50893.36042421467
 20
-6825.69140625
 30
0.0
 11
-50858.97265625
 21
-6825.69140625
 31
0.0
  0
LINE
  5
322
330
31E
100
AcDbEntity
  8
Bemassung-[1_5]
 62
     0
370
    -2
100
AcDbLine
 10
-50893.36042421467
 20
-6856.69140625
 30
0.0
 11
-50858.97265625
 21
-6856.69140625
 31
0.0
  0
LINE
  5
323
330
31E
100
AcDbEntity
  8
Bemassung-[1_5]
 62
     0
370
    -2
100
AcDbLine
 10
-50866.47265625
 20
-6818.19140625
 30
0.0
 11
-50866.47265625
 21
-6864.19140625
 31
0.0
  0
INSERT
  5
324
330
31E
100
AcDbEntity
  8
Bemassung-[1_5]
 62
     0
370
    -2
100
AcDbBlockReference
  2
_OBLIQUE
 10
-50866.47265625
 20
-6825.69140625
 30
0.0
 41
7.5
 42
7.5
 43
7.5
 50
90.0
  0
INSERT
  5
325
330
31E
100
AcDbEntity
  8
Bemassung-[1_5]
 62
     0
370
    -2
100
AcDbBlockReference
  2
_OBLIQUE
 10
-50866.47265625
 20
-6856.69140625
 30
0.0
 41
7.5
 42
7.5
 43
7.5
 50
270.0
  0
MTEXT
  5
326
330
31E
100
AcDbEntity
  8
Bemassung-[1_5]
 62
     0
100
AcDbMText
 10
-50879.13015625
 20
-6841.19140625
 30
0.0
 40
15.0
 41
0.0
 46
0.0
 71
     5
 72
     1
  1
31
  7
KOPF_F
 11
0.0
 21
1.0
 31
0.0
 73
     1
 44
1.0
  0
POINT
  5
327
330
31E
100
AcDbEntity
  8
Defpoints
 62
     0
100
AcDbPoint
 10
-50900.86042421467
 20
-6825.69140625
 30
0.0
  0
POINT
  5
328
330
31E
100
AcDbEntity
  8
Defpoints
 62
     0
100
AcDbPoint
 10
-50900.86042421467
 20
-6856.69140625
 30
0.0
  0
POINT
  5
329
330
31E
100
AcDbEntity
  8
Defpoints
 62
     0
100
AcDbPoint
 10
-50866.47265625
 20
-6856.69140625
 30
0.0
  0
ENDBLK
  5
320
330
31E
100
AcDbEntity
  8
0
100
AcDbBlockEnd
  0
BLOCK
  5
330
330
32F
100
AcDbEntity
  8
0
100
AcDbBlockBegin
  2
*D32
 70
     1
 10
0.0
 20
0.0
 30
0.0
  3
*D32
  1
*D32
  0
LINE
  5
332
330
32F
100
AcDbEntity
  8
Bemassung-[1_5]
 62
     0
370
    -2
100
AcDbLine
 10
-50975.86042421467
 20
-6848.69140625
 30
0.0
 11
-50981.24609375
 21
-6848.69140625
 31
0.0
  0
LINE
  5
333
330
32F
100
AcDbEntity
  8
Bemassung-[1_5]
 62
     0
370
    -2
100
AcDbLine
 10
-50975.86042421467
 20
-6856.69140625
 30
0.0
 11
-50981.24609375
 21
-6856.69140625
 31
0.0
  0
LINE
  5
334
330
32F
100
AcDbEntity
  8
Bemassung-[1_5]
 62
     0
370
    -2
100
AcDbLine
 10
-50973.74609375
 20
-6841.19140625
 30
0.0
 11
-50973.74609375
 21
-6864.19140625
 31
0.0
  0
INSERT
  5
335
330
32F
100
AcDbEntity
  8
Bemassung-[1_5]
 62
     0
370
    -2
100
AcDbBlockReference
  2
_OBLIQUE
 10
-50973.74609375
 20
-6848.69140625
 30
0.0
 41
7.5
 42
7.5
 43
7.5
 50
90.0
  0
INSERT
  5
336
330
32F
100
AcDbEntity
  8
Bemassung-[1_5]
 62
     0
370
    -2
100
AcDbBlockReference
  2
_OBLIQUE
 10
-50973.74609375
 20
-6856.69140625
 30
0.0
 41
7.5
 42
7.5
 43
7.5
 50
270.0
  0
MTEXT
  5
337
330
32F
100
AcDbEntity
  8
Bemassung-[1_5]
 62
     0
100
AcDbMText
 10
-50986.40359375
 20
-6852.69140625
 30
0.0
 40
15.0
 41
0.0
 46
0.0
 71
     5
 72
     1
  1
8
  7
KOPF_F
 11
0.0
 21
1.0
 31
0.0
 73
     1
 44
1.0
  0
POINT
  5
338
330
32F
100
AcDbEntity
  8
Defpoints
 62
     0
100
AcDbPoint
 10
-50968.36042421467
 20
-6848.69140625
 30
0.0
  0
POINT
  5
339
330
32F
100
AcDbEntity
  8
Defpoints
 62
     0
100
AcDbPoint
 10
-50968.36042421467
 20
-6856.69140625
 30
0.0
  0
POINT
  5
33A
330
32F
100
AcDbEntity
  8
Defpoints
 62
     0
100
AcDbPoint
 10
-50973.74609375
 20
-6856.69140625
 30
0.0
  0
ENDBLK
  5
331
330
32F
100
AcDbEntity
  8
0
100
AcDbBlockEnd
  0
BLOCK
  5
341
330
340
100
AcDbEntity
  8
0
100
AcDbBlockBegin
  2
*D33
 70
     1
 10
0.0
 20
0.0
 30
0.0
  3
*D33
  1
*D33
  0
LINE
  5
343
330
340
100
AcDbEntity
  8
Bemassung-[1_5]
 62
     0
370
    -2
100
AcDbLine
 10
-49017.38911073811
 20
-6834.551955544055
 30
0.0
 11
-49048.12109375
 21
-6834.551955544055
 31
0.0
  0
LINE
  5
344
330
340
100
AcDbEntity
  8
Bemassung-[1_5]
 62
     0
370
    -2
100
AcDbLine
 10
-49017.38911073811
 20
-7134.553176247118
 30
0.0
 11
-49048.12109375
 21
-7134.553176247118
 31
0.0
  0
LINE
  5
345
330
340
100
AcDbEntity
  8
Bemassung-[1_5]
 62
     0
370
    -2
100
AcDbLine
 10
-49040.62109375
 20
-6827.051955544055
 30
0.0
 11
-49040.62109375
 21
-6835.7928828125
 31
0.0
  0
LINE
  5
346
330
340
100
AcDbEntity
  8
Bemassung-[1_5]
 62
     0
370
    -2
100
AcDbLine
 10
-49040.62109375
 20
-7142.053176247118
 30
0.0
 11
-49040.62109375
 21
-6952.0918828125
 31
0.0
  0
INSERT
  5
347
330
340
100
AcDbEntity
  8
Bemassung-[1_5]
 62
     0
370
    -2
100
AcDbBlockReference
  2
_OBLIQUE
 10
-49040.62109375
 20
-6834.551955544055
 30
0.0
 41
7.5
 42
7.5
 43
7.5
 50
90.0
  0
INSERT
  5
348
330
340
100
AcDbEntity
  8
Bemassung-[1_5]
 62
     0
370
    -2
100
AcDbBlockReference
  2
_OBLIQUE
 10
-49040.62109375
 20
-7134.553176247118
 30
0.0
 41
7.5
 42
7.5
 43
7.5
 50
270.0
  0
MTEXT
  5
349
330
340
100
AcDbEntity
  8
Bemassung-[1_5]
 62
     0
100
AcDbMText
 10
-49040.62109375
 20
-6893.9423828125
 30
0.0
 40
15.0
 41
0.0
 46
0.0
 71
     5
 72
     1
  1
Max 300 mm
  7
KOPF_F
 11
0.0
 21
1.0
 31
0.0
 73
     1
 44
1.0
  0
POINT
  5
34A
330
340
100
AcDbEntity
  8
Defpoints
 62
     0
100
AcDbPoint
 10
-49009.88911073811
 20
-6834.551955544055
 30
0.0
  0
POINT
  5
34B
330
340
100
AcDbEntity
  8
Defpoints
 62
     0
100
AcDbPoint
 10
-49009.88911073811
 20
-7134.553176247118
 30
0.0
  0
POINT
  5
34C
330
340
100
AcDbEntity
  8
Defpoints
 62
     0
100
AcDbPoint
 10
-49040.62109375
 20
-7134.553176247118
 30
0.0
  0
ENDBLK
  5
342
330
340
100
AcDbEntity
  8
0
100
AcDbBlockEnd
  0
BLOCK
  5
353
330
352
100
AcDbEntity
  8
0
100
AcDbBlockBegin
  2
*D34
 70
     1
 10
0.0
 20
0.0
 30
0.0
  3
*D34
  1
*D34
  0
LINE
  5
355
330
352
100
AcDbEntity
  8
Bemassung-[1_5]
 62
     0
370
    -2
100
AcDbLine
 10
-49018.88883762964
 20
-3598.692504945096
 30
0.0
 11
-49077.79296875
 21
-3598.692504945095
 31
0.0
  0
LINE
  5
356
330
352
100
AcDbEntity
  8
Bemassung-[1_5]
 62
     0
370
    -2
100
AcDbLine
 10
-49018.88883762964
 20
-4103.691711366806
 30
0.0
 11
-49077.79296875
 21
-4103.691711366806
 31
0.0
  0
LINE
  5
357
330
352
100
AcDbEntity
  8
Bemassung-[1_5]
 62
     0
370
    -2
100
AcDbLine
 10
-49070.29296875
 20
-3591.192504945095
 30
0.0
 11
-49070.29296875
 21
-4111.191711366806
 31
0.0
  0
INSERT
  5
358
330
352
100
AcDbEntity
  8
Bemassung-[1_5]
 62
     0
370
    -2
100
AcDbBlockReference
  2
_OBLIQUE
 10
-49070.29296875
 20
-3598.692504945095
 30
0.0
 41
7.5
 42
7.5
 43
7.5
 50
90.0
  0
INSERT
  5
359
330
352
100
AcDbEntity
  8
Bemassung-[1_5]
 62
     0
370
    -2
100
AcDbBlockReference
  2
_OBLIQUE
 10
-49070.29296875
 20
-4103.691711366806
 30
0.0
 41
7.5
 42
7.5
 43
7.5
 50
270.0
  0
MTEXT
  5
35A
330
352
100
AcDbEntity
  8
Bemassung-[1_5]
 62
     0
100
AcDbMText
 10
-49070.29296875
 20
-4042.171142578125
 30
0.0
 40
15.0
 41
0.0
 46
0.0
 71
     5
 72
     1
  1
Max1500 mm mm
  7
KOPF_F
 11
0.0
 21
1.0
 31
0.0
 73
     1
 44
1.0
  0
POINT
  5
35B
330
352
100
AcDbEntity
  8
Defpoints
 62
     0
100
AcDbPoint
 10
-49011.38883762964
 20
-3598.692504945096
 30
0.0
  0
POINT
  5
35C
330
352
100
AcDbEntity
  8
Defpoints
 62
     0
100
AcDbPoint
 10
-49011.38883762964
 20
-4103.691711366806
 30
0.0
  0
POINT
  5
35D
330
352
100
AcDbEntity
  8
Defpoints
 62
     0
100
AcDbPoint
 10
-49070.29296875
 20
-4103.691711366806
 30
0.0
  0
ENDBLK
  5
354
330
352
100
AcDbEntity
  8
0
100
AcDbBlockEnd
  0
BLOCK
  5
373
330
372
100
AcDbEntity
  8
0
100
AcDbBlockBegin
  2
*D35
 70
     1
 10
0.0
 20
0.0
 30
0.0
  3
*D35
  1
*D35
  0
LINE
  5
375
330
372
100
AcDbEntity
  8
Bemassung-[1_5]
 62
     0
370
    -2
100
AcDbLine
 10
-49003.88883762964
 20
-4095.691711366806
 30
0.0
 11
-48956.0234375
 21
-4095.691711366805
 31
0.0
  0
LINE
  5
376
330
372
100
AcDbEntity
  8
Bemassung-[1_5]
 62
     0
370
    -2
100
AcDbLine
 10
-49003.88883762964
 20
-4103.691711366806
 30
0.0
 11
-48956.0234375
 21
-4103.691711366805
 31
0.0
  0
LINE
  5
377
330
372
100
AcDbEntity
  8
Bemassung-[1_5]
 62
     0
370
    -2
100
AcDbLine
 10
-48963.5234375
 20
-4088.191711366805
 30
0.0
 11
-48963.5234375
 21
-4111.191711366805
 31
0.0
  0
INSERT
  5
378
330
372
100
AcDbEntity
  8
Bemassung-[1_5]
 62
     0
370
    -2
100
AcDbBlockReference
  2
_OBLIQUE
 10
-48963.5234375
 20
-4095.691711366805
 30
0.0
 41
7.5
 42
7.5
 43
7.5
 50
90.0
  0
INSERT
  5
379
330
372
100
AcDbEntity
  8
Bemassung-[1_5]
 62
     0
370
    -2
100
AcDbBlockReference
  2
_OBLIQUE
 10
-48963.5234375
 20
-4103.691711366805
 30
0.0
 41
7.5
 42
7.5
 43
7.5
 50
270.0
  0
MTEXT
  5
37A
330
372
100
AcDbEntity
  8
Bemassung-[1_5]
 62
     0
100
AcDbMText
 10
-48976.1809375
 20
-4099.691711366806
 30
0.0
 40
15.0
 41
0.0
 46
0.0
 71
     5
 72
     1
  1
8
  7
KOPF_F
 11
0.0
 21
1.0
 31
0.0
 73
     1
 44
1.0
  0
POINT
  5
37B
330
372
100
AcDbEntity
  8
Defpoints
 62
     0
100
AcDbPoint
 10
-49011.38883762964
 20
-4095.691711366806
 30
0.0
  0
POINT
  5
37C
330
372
100
AcDbEntity
  8
Defpoints
 62
     0
100
AcDbPoint
 10
-49011.38883762964
 20
-4103.691711366806
 30
0.0
  0
POINT
  5
37D
330
372
100
AcDbEntity
  8
Defpoints
 62
     0
100
AcDbPoint
 10
-48963.5234375
 20
-4103.691711366806
 30
0.0
  0
ENDBLK
  5
374
330
372
100
AcDbEntity
  8
0
100
AcDbBlockEnd
  0
BLOCK
  5
3B5
330
3B3
100
AcDbEntity
  8
0
100
AcDbBlockBegin
  2
*Paper_Space37
 70
     0
 10
0.0
 20
0.0
 30
0.0
  3
*Paper_Space37
  1
*Paper_Space37
  0
VIEWPORT
  5
3B7
330
3B3
100
AcDbEntity
  8
0
100
AcDbViewport
 10
128.5
 20
97.5
 30
0.0
 40
314.226
 41
222.18
 68
     1
 69
     1
 12
128.5
 22
97.5
 13
0.0
 23
0.0
 14
10.0
 24
10.0
 15
10.0
 25
10.0
 16
0.0
 26
0.0
 36
1.0
 17
0.0
 27
0.0
 37
0.0
 42
50.0
 43
0.0
 44
0.0
 45
222.18
 50
0.0
 51
0.0
 72
   100
 90
   557152
  1

281
     0
 71
     1
 74
     0
110
0.0
120
0.0
130
0.0
111
1.0
121
0.0
131
0.0
112
0.0
122
1.0
132
0.0
 79
     0
146
0.0
170
     0
 61
     5
292
     1
282
     1
141
0.0
142
0.0
 63
   256
361
3B8
  0
VIEWPORT
  5
3B9
330
3B3
100
AcDbEntity
  8
Ansichtsfenster
100
AcDbViewport
 10
177.9096603393555
 20
145.1513633728027
 30
0.0
 40
42.61528015136719
 41
126.3131408691406
 68
     2
 69
     2
 12
0.0
 22
0.0
 13
0.0
 23
0.0
 14
0.5
 24
0.5
 15
0.0
 25
0.0
 16
0.0
 26
0.0
 36
1000.0
 17
-50729.46484375
 27
-5427.583984375
 37
0.0
 42
50.0
 43
0.0
 44
0.0
 45
3157.828857421875
 50
0.0
 51
0.0
 72
   100
331
88
 90
   557152
  1

281
     0
 71
     1
 74
     0
110
156.6020202636719
120
81.99479293823242
130
0.0
111
1.0
121
0.0
131
0.0
112
0.0
122
1.0
132
0.0
 79
     0
146
0.0
170
     0
 61
     5
292
     1
282
     1
141
0.0
142
0.0
 63
   256
361
3BA
  0
VIEWPORT
  5
3BB
330
3B3
100
AcDbEntity
  8
Ansichtsfenster
100
AcDbViewport
 10
83.0403943061828
 20
50.55770111083984
 30
0.0
 40
127.620108604431
 41
26.02649688720703
 68
     3
 69
     3
 12
0.0
 22
0.0
 13
0.0
 23
0.0
 14
0.5
 24
0.5
 15
0.0
 25
0.0
 16
0.0
 26
0.0
 36
1000.0
 17
-53076.3203125
 27
-7439.15771484375
 37
0.0
 42
50.0
 43
0.0
 44
0.0
 45
650.6624659403675
 50
0.0
 51
0.0
 72
   100
331
88
331
8C
331
80
 90
   557152
  1

281
     0
 71
     1
 74
     0
110
19.23034000396729
120
37.54445266723633
130
0.0
111
1.0
121
0.0
131
0.0
112
0.0
122
1.0
132
0.0
 79
     0
146
0.0
170
     0
 61
     5
292
     1
282
     1
141
0.0
142
0.0
 63
   256
361
3BC
  0
VIEWPORT
  5
3BD
330
3B3
100
AcDbEntity
  8
Ansichtsfenster
100
AcDbViewport
 10
82.474045753479
 20
140.1079015731812
 30
0.0
 40
141.6862659454346
 41
134.765775680542
 68
     4
 69
     4
 12
0.0
 22
0.0
 13
0.0
 23
0.0
 14
0.5
 24
0.5
 15
0.0
 25
0.0
 16
0.0
 26
0.0
 36
1000.0
 17
-53028.34375
 27
-5537.138671875
 37
0.0
 42
50.0
 43
0.0
 44
0.0
 45
3369.14453125
 50
0.0
 51
0.0
 72
   100
331
88
331
80
331
7F
 90
   557152
  1

281
     0
 71
     1
 74
     0
110
11.63091278076172
120
72.72501373291016
130
0.0
111
1.0
121
0.0
131
0.0
112
0.0
122
1.0
132
0.0
 79
     0
146
0.0
170
     0
 61
     5
292
     1
282
     1
141
0.0
142
0.0
 63
   256
361
3BE
  0
VIEWPORT
  5
3BF
330
3B3
100
AcDbEntity
  8
Ansichtsfenster
100
AcDbViewport
 10
105.1713528633118
 20
232.2547378540039
 30
0.0
 40
188.1587285995483
 41
44.03230285644531
 68
     5
 69
     5
 12
0.0
 22
0.0
 13
0.0
 23
0.0
 14
0.5
 24
0.5
 15
0.0
 25
0.0
 16
0.0
 26
0.0
 36
1000.0
 17
-46103.30859375
 27
-3555.258544921875
 37
0.0
 42
50.0
 43
0.0
 44
0.0
 45
279.588623046875
 50
0.0
 51
0.0
 72
   100
331
7F
331
82
331
88
331
8A
331
8C
 90
   557152
  1

281
     0
 71
     1
 74
     0
110
11.0919885635376
120
210.2385864257812
130
0.0
111
1.0
121
0.0
131
0.0
112
0.0
122
1.0
132
0.0
 79
     0
146
0.0
170
     0
 61
     5
292
     1
282
     1
141
0.0
142
0.0
 63
   256
361
3C0
  0
ENDBLK
  5
3B6
330
3B3
100
AcDbEntity
  8
0
100
AcDbBlockEnd
  0
BLOCK
  5
3C3
330
3C1
100
AcDbEntity
  8
0
100
AcDbBlockBegin
  2
*Paper_Space38
 70
     0
 10
0.0
 20
0.0
 30
0.0
  3
*Paper_Space38
  1
*Paper_Space38
  0
VIEWPORT
  5
3C5
102
{ACAD_XDICTIONARY
360
3C8
102
}
330
3C1
100
AcDbEntity
  8
0
100
AcDbViewport
 10
128.5
 20
97.5
 30
0.0
 40
314.226
 41
222.18
 68
     1
 69
     1
 12
128.5
 22
97.5
 13
0.0
 23
0.0
 14
10.0
 24
10.0
 15
10.0
 25
10.0
 16
0.0
 26
0.0
 36
1.0
 17
0.0
 27
0.0
 37
0.0
 42
50.0
 43
0.0
 44
0.0
 45
222.18
 50
0.0
 51
0.0
 72
   100
 90
   557152
  1

281
     0
 71
     1
 74
     0
110
0.0
120
0.0
130
0.0
111
1.0
121
0.0
131
0.0
112
0.0
122
1.0
132
0.0
 79
     0
146
0.0
170
     0
 61
     5
292
     1
282
     1
141
0.0
142
0.0
 63
   256
361
3C6
  0
TEXT
  5
3C7
102
{ACAD_XDICTIONARY
360
3CA
102
}
330
3C1
100
AcDbEntity
  8
Text-[1_1]
100
AcDbText
 10
14.04066848754883
 20
322.6684875488281
 30
0.0
 40
3.0
  1
Anschluss Detail 1 horizontal
 11
14.04066848754883
 21
325.6684875488281
 31
0.0
100
AcDbText
 73
     3
1001
AcadAnnotative
1000
AnnotativeData
1002
{
1070
     1
1070
     1
1002
}
  0
TEXT
  5
3CE
102
{ACAD_XDICTIONARY
360
3CF
102
}
330
3C1
100
AcDbEntity
  8
Text-[1_1]
100
AcDbText
 10
70.72162628173828
 20
322.6684875488281
 30
0.0
 40
3.0
  1
Anschluss mitte horizontal
 11
70.72162628173828
 21
325.6684875488281
 31
0.0
100
AcDbText
 73
     3
1001
AcadAnnotative
1000
AnnotativeData
1002
{
1070
     1
1070
     1
1002
}
  0
TEXT
  5
3D3
102
{ACAD_XDICTIONARY
360
3D4
102
}
330
3C1
100
AcDbEntity
  8
Text-[1_1]
100
AcDbText
 10
123.759391784668
 20
322.6684875488281
 30
0.0
 40
3.0
  1
Anschluss Detail 1 vertikal
 11
123.759391784668
 21
325.6684875488281
 31
0.0
100
AcDbText
 73
     3
1001
AcadAnnotative
1000
AnnotativeData
1002
{
1070
     1
1070
     1
1002
}
  0
TEXT
  5
3D8
102
{ACAD_XDICTIONARY
360
3D9
102
}
330
3C1
100
AcDbEntity
  8
Text-[1_1]
100
AcDbText
 10
176.1556549072266
 20
322.6684875488281
 30
0.0
 40
3.0
  1
Anschluss Detail 2 vertikal
 11
176.1556549072266
 21
325.6684875488281
 31
0.0
100
AcDbText
 73
     3
1001
AcadAnnotative
1000
AnnotativeData
1002
{
1070
     1
1070
     1
1002
}
  0
TEXT
  5
3DD
102
{ACAD_XDICTIONARY
360
3DE
102
}
330
3C1
100
AcDbEntity
  8
Text-[1_1]
100
AcDbText
 10
70.72162628173828
 20
322.6684875488281
 30
0.0
 40
3.0
  1
Anschluss mitte horizontal
 11
70.72162628173828
 21
325.6684875488281
 31
0.0
100
AcDbText
 73
     3
1001
AcadAnnotative
1000
AnnotativeData
1002
{
1070
     1
1070
     1
1002
}
  0
TEXT
  5
3E2
102
{ACAD_XDICTIONARY
360
3E3
102
}
330
3C1
100
AcDbEntity
  8
Text-[1_1]
100
AcDbText
 10
229.6513366699219
 20
322.6684875488281
 30
0.0
 40
3.0
  1
Anschluss Detail 3 vertikal
 11
229.6513366699219
 21
325.6684875488281
 31
0.0
100
AcDbText
 73
     3
1001
AcadAnnotative
1000
AnnotativeData
1002
{
1070
     1
1070
     1
1002
}
  0
VIEWPORT
  5
3E7
330
3C1
100
AcDbEntity
  8
Ansichtsfenster
100
AcDbViewport
 10
41.04998016357422
 20
285.9478912353516
 30
0.0
 40
47.68186950683594
 41
68.72372436523438
 68
     2
 69
     2
 12
0.0
 22
0.0
 13
0.0
 23
0.0
 14
0.5
 24
0.5
 15
0.0
 25
0.0
 16
0.0
 26
0.0
 36
1000.0
 17
-54563.69140625
 27
-7405.44140625
 37
0.0
 42
50.0
 43
0.0
 44
0.0
 45
343.61865234375
 50
0.0
 51
0.0
 72
   100
331
7F
331
88
331
8C
331
82
 90
   557152
  1

281
     0
 71
     1
 74
     0
110
17.20904541015625
120
251.5860290527344
130
0.0
111
1.0
121
0.0
131
0.0
112
0.0
122
1.0
132
0.0
 79
     0
146
0.0
170
     0
 61
     5
292
     1
282
     1
141
0.0
142
0.0
 63
   256
361
3E8
  0
VIEWPORT
  5
3E9
330
3C1
100
AcDbEntity
  8
Ansichtsfenster
100
AcDbViewport
 10
93.08411026000977
 20
285.7188262939453
 30
0.0
 40
41.65557098388672
 41
67.81344604492188
 68
     3
 69
     3
 12
0.0
 22
0.0
 13
0.0
 23
0.0
 14
0.5
 24
0.5
 15
0.0
 25
0.0
 16
0.0
 26
0.0
 36
1000.0
 17
-53556.03125
 27
-7406.39208984375
 37
0.0
 42
50.0
 43
0.0
 44
0.0
 45
339.0672302246094
 50
0.0
 51
0.0
 72
   100
331
7F
331
81
331
88
331
8C
331
82
 90
   557152
  1

281
     0
 71
     1
 74
     0
110
72.2563247680664
120
251.8121032714844
130
0.0
111
1.0
121
0.0
131
0.0
112
0.0
122
1.0
132
0.0
 79
     0
146
0.0
170
     0
 61
     5
292
     1
282
     1
141
0.0
142
0.0
 63
   256
361
3EA
  0
VIEWPORT
  5
3EB
330
3C1
100
AcDbEntity
  8
Ansichtsfenster
100
AcDbViewport
 10
39.98396301269531
 20
219.51708984375
 30
0.0
 40
55.96792602539062
 41
53.55853271484375
 68
     4
 69
     4
 12
0.0
 22
0.0
 13
0.0
 23
0.0
 14
0.5
 24
0.5
 15
0.0
 25
0.0
 16
0.0
 26
0.0
 36
1000.0
 17
-54567.3984375
 27
-8981.34765625
 37
0.0
 42
50.0
 43
0.0
 44
0.0
 45
267.7926635742188
 50
0.0
 51
0.0
 72
   100
331
7F
331
88
331
8C
 90
   557152
  1

281
     0
 71
     1
 74
     0
110
12.0
120
192.7378234863281
130
0.0
111
1.0
121
0.0
131
0.0
112
0.0
122
1.0
132
0.0
 79
     0
146
0.0
170
     0
 61
     5
292
     1
282
     1
141
0.0
142
0.0
 63
   256
361
3EC
  0
VIEWPORT
  5
3ED
330
3C1
100
AcDbEntity
  8
Ansichtsfenster
100
AcDbViewport
 10
41.16247940063477
 20
150.8684387207031
 30
0.0
 40
58.32495880126953
 41
53.55853271484375
 68
     5
 69
     5
 12
0.0
 22
0.0
 13
0.0
 23
0.0
 14
0.5
 24
0.5
 15
0.0
 25
0.0
 16
0.0
 26
0.0
 36
1000.0
 17
-54560.51171875
 27
-9826.1767578125
 37
0.0
 42
50.0
 43
0.0
 44
0.0
 45
267.7926635742188
 50
0.0
 51
0.0
 72
   100
331
7F
331
88
331
8C
 90
   557152
  1

281
     0
 71
     1
 74
     0
110
12.0
120
124.0891723632812
130
0.0
111
1.0
121
0.0
131
0.0
112
0.0
122
1.0
132
0.0
 79
     0
146
0.0
170
     0
 61
     5
292
     1
282
     1
141
0.0
142
0.0
 63
   256
361
3EE
  0
VIEWPORT
  5
3EF
330
3C1
100
AcDbEntity
  8
Ansichtsfenster
100
AcDbViewport
 10
147.7292823791504
 20
238.0635833740234
 30
0.0
 40
48.41942596435547
 41
37.03497314453125
 68
     6
 69
     6
 12
0.0
 22
0.0
 13
0.0
 23
0.0
 14
0.5
 24
0.5
 15
0.0
 25
0.0
 16
0.0
 26
0.0
 36
1000.0
 17
-50945.69921875
 27
-4178.50146484375
 37
0.0
 42
50.0
 43
0.0
 44
0.0
 45
185.1748962402344
 50
0.0
 51
0.0
 72
   100
331
7F
331
81
331
88
331
8C
331
82
 90
   557152
  1

281
     0
 71
     1
 74
     0
110
123.5195693969727
120
219.5460968017578
130
0.0
111
1.0
121
0.0
131
0.0
112
0.0
122
1.0
132
0.0
 79
     0
146
0.0
170
     0
 61
     5
292
     1
282
     1
141
0.0
142
0.0
 63
   256
361
3F0
  0
VIEWPORT
  5
3F1
330
3C1
100
AcDbEntity
  8
Ansichtsfenster
100
AcDbViewport
 10
149.187328338623
 20
192.5312423706055
 30
0.0
 40
51.33551788330078
 41
35.64750671386719
 68
     7
 69
     7
 12
0.0
 22
0.0
 13
0.0
 23
0.0
 14
0.5
 24
0.5
 15
0.0
 25
0.0
 16
0.0
 26
0.0
 36
1000.0
 17
-50938.328125
 27
-4852.0732421875
 37
0.0
 42
50.0
 43
0.0
 44
0.0
 45
178.2375640869141
 50
0.0
 51
0.0
 72
   100
331
7F
331
81
331
88
331
8C
331
82
 90
   557152
  1

281
     0
 71
     1
 74
     0
110
123.5195693969727
120
174.7074890136719
130
0.0
111
1.0
121
0.0
131
0.0
112
0.0
122
1.0
132
0.0
 79
     0
146
0.0
170
     0
 61
     5
292
     1
282
     1
141
0.0
142
0.0
 63
   256
361
3F2
  0
VIEWPORT
  5
3F3
330
3C1
100
AcDbEntity
  8
Ansichtsfenster
100
AcDbViewport
 10
148.313663482666
 20
145.6291656494141
 30
0.0
 40
48.41942596435547
 41
52.49270629882812
 68
     8
 69
     8
 12
0.0
 22
0.0
 13
0.0
 23
0.0
 14
0.5
 24
0.5
 15
0.0
 25
0.0
 16
0.0
 26
0.0
 36
1000.0
 17
-50942.90625
 27
-6829.603515625
 37
0.0
 42
50.0
 43
0.0
 44
0.0
 45
262.4635728502243
 50
0.0
 51
0.0
 72
   100
331
7F
331
81
331
88
331
8C
331
82
 90
   557152
  1

281
     0
 71
     1
 74
     0
110
124.1039505004883
120
119.3828125
130
0.0
111
1.0
121
0.0
131
0.0
112
0.0
122
1.0
132
0.0
 79
     0
146
0.0
170
     0
 61
     5
292
     1
282
     1
141
0.0
142
0.0
 63
   256
361
3F4
  0
VIEWPORT
  5
3F5
330
3C1
100
AcDbEntity
  8
Ansichtsfenster
100
AcDbViewport
 10
201.1545944213867
 20
247.0674896240234
 30
0.0
 40
46.02970886230469
 41
45.89016723632812
 68
     9
 69
     9
 12
0.0
 22
0.0
 13
0.0
 23
0.0
 14
0.5
 24
0.5
 15
0.0
 25
0.0
 16
0.0
 26
0.0
 36
1000.0
 17
-49553.9140625
 27
-4133.7802734375
 37
0.0
 42
50.0
 43
0.0
 44
0.0
 45
229.4508666992188
 50
0.0
 51
0.0
 72
   100
331
7F
331
81
331
88
331
8C
331
82
 90
   557152
  1

281
     0
 71
     1
 74
     0
110
178.1397399902344
120
224.1224060058594
130
0.0
111
1.0
121
0.0
131
0.0
112
0.0
122
1.0
132
0.0
 79
     0
146
0.0
170
     0
 61
     5
292
     1
282
     1
141
0.0
142
0.0
 63
   256
361
3F6
  0
VIEWPORT
  5
3F7
330
3C1
100
AcDbEntity
  8
Ansichtsfenster
100
AcDbViewport
 10
200.544116973877
 20
145.6291656494141
 30
0.0
 40
48.41942596435547
 41
52.49270629882812
 68
    10
 69
    10
 12
0.0
 22
0.0
 13
0.0
 23
0.0
 14
0.5
 24
0.5
 15
0.0
 25
0.0
 16
0.0
 26
0.0
 36
1000.0
 17
-49556.53125
 27
-6815.46435546875
 37
0.0
 42
50.0
 43
0.0
 44
0.0
 45
262.4635728502243
 50
0.0
 51
0.0
 72
   100
331
7F
331
81
331
88
331
8C
331
82
 90
   557152
  1

281
     0
 71
     1
 74
     0
110
176.3344039916992
120
119.3828125
130
0.0
111
1.0
121
0.0
131
0.0
112
0.0
122
1.0
132
0.0
 79
     0
146
0.0
170
     0
 61
     5
292
     1
282
     1
141
0.0
142
0.0
 63
   256
361
3F8
  0
VIEWPORT
  5
3F9
330
3C1
100
AcDbEntity
  8
Ansichtsfenster
100
AcDbViewport
 10
253.0372200012207
 20
143.9379272460938
 30
0.0
 40
48.41942596435547
 41
52.49270629882812
 68
    11
 69
    11
 12
0.0
 22
0.0
 13
0.0
 23
0.0
 14
0.5
 24
0.5
 15
0.0
 25
0.0
 16
0.0
 26
0.0
 36
1000.0
 17
-48969.48828125
 27
-6824.31201171875
 37
0.0
 42
50.0
 43
0.0
 44
0.0
 45
262.4635728502243
 50
0.0
 51
0.0
 72
   100
331
7F
331
81
331
88
331
8C
331
82
 90
   557152
  1

281
     0
 71
     1
 74
     0
110
228.827507019043
120
117.6915740966797
130
0.0
111
1.0
121
0.0
131
0.0
112
0.0
122
1.0
132
0.0
 79
     0
146
0.0
170
     0
 61
     5
292
     1
282
     1
141
0.0
142
0.0
 63
   256
361
3FA
  0
VIEWPORT
  5
3FB
330
3C1
100
AcDbEntity
  8
Ansichtsfenster
100
AcDbViewport
 10
251.9153366088867
 20
251.8183746337891
 30
0.0
 40
50.66319274902344
 41
59.21435546875
 68
    12
 69
    12
 12
0.0
 22
0.0
 13
0.0
 23
0.0
 14
0.5
 24
0.5
 15
0.0
 25
0.0
 16
0.0
 26
0.0
 36
1000.0
 17
-48975.09375
 27
-4109.2822265625
 37
0.0
 42
50.0
 43
0.0
 44
0.0
 45
296.0718130122229
 50
0.0
 51
0.0
 72
   100
331
7F
331
81
331
88
331
8C
331
82
 90
   557152
  1

281
     0
 71
     1
 74
     0
110
226.583740234375
120
222.2111968994141
130
0.0
111
1.0
121
0.0
131
0.0
112
0.0
122
1.0
132
0.0
 79
     0
146
0.0
170
     0
 61
     5
292
     1
282
     1
141
0.0
142
0.0
 63
   256
361
3FC
  0
VIEWPORT
  5
3FD
330
3C1
100
AcDbEntity
  8
Ansichtsfenster
100
AcDbViewport
 10
253.0372200012207
 20
101.6739120483398
 30
0.0
 40
48.41942596435547
 41
26.24635314941406
 68
    13
 69
    13
 12
0.0
 22
0.0
 13
0.0
 23
0.0
 14
0.5
 24
0.5
 15
0.0
 25
0.0
 16
0.0
 26
0.0
 36
1000.0
 17
-48969.48828125
 27
-7094.326171875
 37
0.0
 42
50.0
 43
0.0
 44
0.0
 45
131.2317864251121
 50
0.0
 51
0.0
 72
   100
331
7F
331
81
331
88
331
8C
331
82
 90
   557152
  1

281
     0
 71
     1
 74
     0
110
228.827507019043
120
88.55073547363281
130
0.0
111
1.0
121
0.0
131
0.0
112
0.0
122
1.0
132
0.0
 79
     0
146
0.0
170
     0
 61
     5
292
     1
282
     1
141
0.0
142
0.0
 63
   256
361
3FE
  0
VIEWPORT
  5
3FF
330
3C1
100
AcDbEntity
  8
Ansichtsfenster
100
AcDbViewport
 10
253.0372200012207
 20
300.087516784668
 30
0.0
 40
48.41942596435547
 41
30.56326293945312
 68
    14
 69
    14
 12
0.0
 22
0.0
 13
0.0
 23
0.0
 14
0.5
 24
0.5
 15
0.0
 25
0.0
 16
0.0
 26
0.0
 36
1000.0
 17
-48969.484375
 27
-3598.4150390625
 37
0.0
 42
50.0
 43
0.0
 44
0.0
 45
152.8163387763606
 50
0.0
 51
0.0
 72
   100
331
7F
331
81
331
88
331
8C
331
82
 90
   557152
  1

281
     0
 71
     1
 74
     0
110
228.827507019043
120
284.8058853149414
130
0.0
111
1.0
121
0.0
131
0.0
112
0.0
122
1.0
132
0.0
 79
     0
146
0.0
170
     0
 61
     5
292
     1
282
     1
141
0.0
142
0.0
 63
   256
361
400
  0
ENDBLK
  5
3C4
330
3C1
100
AcDbEntity
  8
0
100
AcDbBlockEnd
  0
ENDSEC
  0
SECTION
  2
ENTITIES
  0
LWPOLYLINE
  5
DD
330
1F
100
AcDbEntity
  8
L 1
100
AcDbPolyline
 90
        5
 70
     0
 43
0.0
 10
-54451.44816103096
 20
-4482.190917968749
 10
-54451.44816103096
 20
-4489.190917968749
 10
-54444.44816103096
 20
-4489.190917968749
 10
-54444.44816103096
 20
-4482.190917968749
 10
-54451.44816103096
 20
-4482.190917968749
  0
CIRCLE
  5
DE
330
1F
100
AcDbEntity
  8
L 1
100
AcDbCircle
 10
-54447.94821166991
 20
-4485.690917968749
 30
0.0
 40
15.00000000000005
  0
CIRCLE
  5
DF
330
1F
100
AcDbEntity
  8
L 1
100
AcDbCircle
 10
-54447.94821166991
 20
-4485.690917968749
 30
0.0
 40
8.0
  0
LWPOLYLINE
  5
E0
330
1F
100
AcDbEntity
  8
L 025-[1_5]
100
AcDbPolyline
 90
        5
 70
     0
 43
0.0
 10
-54546.94906616211
 20
-7482.806640625
 42
1.300543843604654
 10
-54553.9490661621
 20
-7482.806640624999
 10
-54553.9490661621
 20
-7472.005371093748
 10
-54546.94906616211
 20
-7472.005371093749
 10
-54546.94906616211
 20
-7482.806640625
  0
CIRCLE
  5
E1
330
1F
100
AcDbEntity
  8
L
100
AcDbCircle
 10
-54550.08295839436
 20
-7399.626831054689
 30
0.0
 40
3.000000000008305
  0
LWPOLYLINE
  5
E2
330
1F
100
AcDbEntity
  8
L 1
100
AcDbPolyline
 90
        5
 70
     0
 43
0.0
 10
-54451.44816103096
 20
-5795.191223085552
 10
-54451.44816103096
 20
-5802.191223085552
 10
-54444.44816103096
 20
-5802.191223085552
 10
-54444.44816103096
 20
-5795.191223085552
 10
-54451.44816103096
 20
-5795.191223085552
  0
CIRCLE
  5
E3
330
1F
100
AcDbEntity
  8
L 1
100
AcDbCircle
 10
-54447.94821166991
 20
-5798.691223085552
 30
0.0
 40
15.00000000000005
  0
CIRCLE
  5
E4
330
1F
100
AcDbEntity
  8
L 1
100
AcDbCircle
 10
-54447.94821166991
 20
-5798.691223085552
 30
0.0
 40
8.0
  0
CIRCLE
  5
E5
330
1F
100
AcDbEntity
  8
L 025-[1_5]
100
AcDbCircle
 10
-54575.08295839436
 20
-8959.387084960938
 30
0.0
 40
3.999999999998753
  0
LWPOLYLINE
  5
E6
102
{ACAD_REACTORS
330
38A
102
}
330
1F
100
AcDbEntity
  8
L 1
100
AcDbPolyline
 90
        5
 70
     0
 43
0.0
 10
-54570.94906616211
 20
-9044.06689453125
 10
-54548.94906616211
 20
-9044.06689453125
 10
-54548.94906616211
 20
-8952.56689453125
 10
-54570.94906616211
 20
-8952.56689453125
 10
-54570.94906616211
 20
-9044.06689453125
  0
LWPOLYLINE
  5
E7
102
{ACAD_REACTORS
330
38E
102
}
330
1F
100
AcDbEntity
  8
L 1
100
AcDbPolyline
 90
        5
 70
     0
 43
0.0
 10
-54548.94906616211
 20
-9066.06689453125
 10
-54548.94906616211
 20
-9044.06689453125
 10
-54639.94906616211
 20
-9044.06689453125
 10
-54639.94906616211
 20
-9066.06689453125
 10
-54548.94906616211
 20
-9066.06689453125
  0
LWPOLYLINE
  5
E8
102
{ACAD_REACTORS
330
38C
102
}
330
1F
100
AcDbEntity
  8
L 1
100
AcDbPolyline
 90
        5
 70
     0
 43
0.0
 10
-54621.94906616211
 20
-9890.52099609375
 10
-54599.94906616211
 20
-9890.52099609375
 10
-54599.94906616211
 20
-9799.02099609375
 10
-54621.94906616211
 20
-9799.02099609375
 10
-54621.94906616211
 20
-9890.52099609375
  0
LWPOLYLINE
  5
E9
102
{ACAD_REACTORS
330
396
102
}
330
1F
100
AcDbEntity
  8
L 1
100
AcDbPolyline
 90
        8
 70
     1
 43
0.0
 10
-53543.44906616211
 20
-7482.806640625
 10
-53543.44906616211
 20
-7455.306640625001
 10
-53569.44906616211
 20
-7455.306640624999
 10
-53569.44906616211
 20
-7392.806640625
 10
-53495.44906616211
 20
-7392.806640625
 10
-53495.44906616211
 20
-7455.306640624999
 10
-53521.44906616211
 20
-7455.306640625001
 10
-53521.44906616211
 20
-7482.806640625
  0
LWPOLYLINE
  5
EA
102
{ACAD_REACTORS
330
397
102
}
330
1F
100
AcDbEntity
  8
L 1
100
AcDbPolyline
 90
        7
 70
     0
 43
0.0
 10
-54546.94906616211
 20
-7482.806640625
 10
-54546.94906616211
 20
-7392.806640625
 10
-54501.94906616211
 20
-7392.806640625
 10
-54501.94906616211
 20
-7455.306640625
 10
-54527.94906616211
 20
-7455.306640625001
 10
-54527.94906616211
 20
-7482.806640625
 10
-54546.94906616211
 20
-7482.806640625
  0
LWPOLYLINE
  5
EB
102
{ACAD_REACTORS
330
3A1
102
}
330
1F
100
AcDbEntity
  8
L 1
100
AcDbPolyline
 90
        7
 70
     0
 43
0.0
 10
-51013.36042421467
 20
-6778.691406249999
 10
-51013.36042421467
 20
-6848.69140625
 10
-50923.36042421467
 20
-6848.69140625
 10
-50923.36042421467
 20
-6804.69140625
 10
-50950.86042421467
 20
-6804.69140625
 10
-50950.86042421467
 20
-6778.691406249999
 10
-51013.36042421467
 20
-6778.691406249999
  0
LWPOLYLINE
  5
EC
102
{ACAD_REACTORS
330
393
102
}
330
1F
100
AcDbEntity
  8
L 1
100
AcDbPolyline
 90
        9
 70
     0
 43
0.0
 10
-50900.86042421467
 20
-4844.691589414443
 10
-50921.86042421467
 20
-4844.691589414443
 10
-50921.86042421467
 20
-4790.691391682882
 10
-50946.86042421467
 20
-4790.691391682882
 10
-50946.86042421467
 20
-4162.691420817116
 10
-50921.86042421467
 20
-4162.691420817116
 10
-50921.86042421467
 20
-4112.552260660866
 10
-50900.86042421467
 20
-4112.552260660866
 10
-50900.86042421467
 20
-4844.691589414443
  0
DIMENSION
  5
ED
102
{ACAD_XDICTIONARY
360
EF
102
}
330
1F
100
AcDbEntity
  8
Bemassung-[1_5]
100
AcDbDimension
280
     0
  2
*D4
 10
-54541.94873046875
 20
-7541.1806640625
 30
0.0
 11
-54547.94889831543
 21
-7541.1806640625
 31
0.0
 70
   160
 71
     5
 42
12.00033569335938
 73
     0
 74
     0
 75
     0
  3
Standard
100
AcDbAlignedDimension
 13
-54553.94906616211
 23
-7506.306640625
 33
0.0
 14
-54541.94873046875
 24
-7506.306640625
 34
0.0
100
AcDbRotatedDimension
1001
AcadAnnotative
1000
AnnotativeData
1002
{
1070
     1
1070
     1
1002
}
  0
DIMENSION
  5
100
102
{ACAD_XDICTIONARY
360
101
102
}
330
1F
100
AcDbEntity
  8
Bemassung-[1_5]
100
AcDbDimension
280
     0
  2
*D5
 10
-53528.44906616211
 20
-7537.91650390625
 30
0.0
 11
-53532.44906616211
 21
-7537.91650390625
 31
0.0
 70
   160
 71
     5
 42
8.0
 73
     0
 74
     0
 75
     0
  3
Standard
100
AcDbAlignedDimension
 13
-53536.44906616211
 23
-7506.306640625
 33
0.0
 14
-53528.44906616211
 24
-7506.306640625
 34
0.0
100
AcDbRotatedDimension
1001
AcadAnnotative
1000
AnnotativeData
1002
{
1070
     1
1070
     1
1002
}
  0
DIMENSION
  5
111
102
{ACAD_XDICTIONARY
360
112
102
}
330
1F
100
AcDbEntity
  8
Bemassung-[1_5]
100
AcDbDimension
280
     0
  2
*D6
 10
-54581.6171875
 20
-7506.306640625
 30
0.0
 11
-54581.6171875
 21
-7449.556640625
 31
0.0
 70
   160
 71
     5
 42
113.5
 73
     0
 74
     0
 75
     0
 51
-90.00000000000001
  3
Standard
100
AcDbAlignedDimension
 13
-54527.94906616211
 23
-7392.806640625
 33
0.0
 14
-54527.94906616211
 24
-7506.306640625
 34
0.0
 50
-89.99999999999999
100
AcDbRotatedDimension
1001
AcadAnnotative
1000
AnnotativeData
1002
{
1070
     1
1070
     1
1002
}
  0
LWPOLYLINE
  5
122
330
1F
100
AcDbEntity
  8
L 1
100
AcDbPolyline
 90
        4
 70
     1
 43
0.0
 10
-54541.94906616211
 20
-6827.691223085552
 10
-53535.94906616211
 20
-6827.691223085552
 10
-53535.94906616211
 20
-4852.191589414443
 10
-54541.94906616211
 20
-4852.191589414443
  0
LWPOLYLINE
  5
123
330
1F
100
AcDbEntity
  8
L 1
100
AcDbPolyline
 90
        4
 70
     1
 43
0.0
 10
-54541.94906616211
 20
-4845.191589414443
 10
-53535.94906616211
 20
-4845.191589414443
 10
-53535.94906616211
 20
-4127.691406249999
 10
-54541.94906616211
 20
-4127.691406249999
  0
LWPOLYLINE
  5
124
330
1F
100
AcDbEntity
  8
L 1
100
AcDbPolyline
 90
        4
 70
     1
 43
0.0
 10
-53528.94906616211
 20
-6827.691223085555
 10
-52561.94906616211
 20
-6827.691223085555
 10
-52561.94906616211
 20
-4127.691420817117
 10
-53528.94906616211
 20
-4127.691420817117
  0
LWPOLYLINE
  5
125
330
1F
100
AcDbEntity
  8
L 1
100
AcDbPolyline
 90
        4
 70
     1
 43
0.0
 10
-52554.94909674682
 20
-6827.691223085556
 10
-51587.94906616211
 20
-6827.691223085556
 10
-51587.94906616211
 20
-4127.691420817117
 10
-52554.94909674682
 20
-4127.691420817117
  0
LWPOLYLINE
  5
126
330
1F
100
AcDbEntity
  8
L 1
100
AcDbPolyline
 90
        5
 70
     0
 43
0.0
 10
-52464.44816103102
 20
-5795.191223085556
 10
-52464.44816103102
 20
-5802.191223085556
 10
-52457.44816103102
 20
-5802.191223085556
 10
-52457.44816103102
 20
-5795.191223085556
 10
-52464.44816103102
 20
-5795.191223085556
  0
CIRCLE
  5
127
330
1F
100
AcDbEntity
  8
L 1
100
AcDbCircle
 10
-52460.94821166997
 20
-5798.691223085556
 30
0.0
 40
15.00000000000005
  0
CIRCLE
  5
128
330
1F
100
AcDbEntity
  8
L 1
100
AcDbCircle
 10
-52460.94821166997
 20
-5798.691223085556
 30
0.0
 40
8.0
  0
LWPOLYLINE
  5
129
102
{ACAD_REACTORS
330
395
102
}
330
1F
100
AcDbEntity
  8
L 1
100
AcDbPolyline
 90
        8
 70
     1
 43
0.0
 10
-50921.86042421467
 20
-4852.691589414443
 10
-50921.86042421467
 20
-4906.691589414443
 10
-50946.86042421467
 20
-4906.691589414443
 10
-50946.86042421467
 20
-6790.69140625
 10
-50921.86042421467
 20
-6790.69140625
 10
-50921.86042421467
 20
-6825.69140625
 10
-50900.86042421467
 20
-6825.69140625
 10
-50900.86042421467
 20
-4852.691589414443
  0
LWPOLYLINE
  5
12A
330
1F
100
AcDbEntity
  8
L 2
100
AcDbPolyline
 90
        4
 70
     0
 43
0.0
 10
-50712.3515625
 20
-6856.69140625
 10
-51188.7265625
 20
-6856.69140625
 10
-51188.7265625
 20
-4095.691711366806
 10
-50689.953125
 20
-4095.691711366806
  0
DIMENSION
  5
12B
102
{ACAD_XDICTIONARY
360
12D
102
}
330
1F
100
AcDbEntity
  8
Bemassung-[1_25]
100
AcDbDimension
280
     0
  2
*D7
 10
-51072.86328125
 20
-4918.691589414445
 30
0.0
 11
-51072.86328125
 21
-5848.691497832222
 31
0.0
 70
   160
  1
Max im Licht
 71
     5
 42
1859.999816835554
 73
     0
 74
     0
 75
     0
 51
-90.0
  3
Standard
100
AcDbAlignedDimension
 13
-51013.36042421467
 23
-6778.691406249999
 33
0.0
 14
-51013.36042421467
 24
-4918.691589414445
 34
0.0
 50
90.0
100
AcDbRotatedDimension
1001
ACAD
1000
DSTYLE
1002
{
1070
    79
1070
     2
1070
   275
1070
     0
1070
   179
1070
     1
1070
    71
1070
     0
1070
    72
1070
     0
1070
   273
1070
     8
1070
     4
1000

1070
   143
1040
1.0
1070
   148
1040
0.0
1070
   274
1070
     1
1070
   170
1070
     0
1070
   144
1040
1.0
1070
   277
1070
     6
1070
    78
1070
     8
1070
    45
1040
0.1
1070
   271
1070
     1
1070
     3
1000
<>
1070
   174
1070
     1
1070
   289
1070
     0
1070
    74
1070
     0
1070
    73
1070
     0
1070
   280
1070
     0
1070
   279
1070
     0
1070
   147
1040
1.0
1070
   145
1040
1.0
1070
    77
1070
     1
1070
   146
1040
0.6
1070
   140
1040
3.0
1070
   172
1070
     1
1070
    76
1070
     0
1070
    75
1070
     0
1070
    44
1040
1.5
1070
    42
1040
1.5
1070
    43
1040
10.0
1070
   282
1070
     0
1070
   281
1070
     0
1070
    46
1040
1.5
1070
    41
1040
1.5
1070
   142
1040
0.0
1070
   342
1005
8E
1070
   173
1070
     0
1070
   372
1070
    -2
1070
   371
1070
    -2
1070
    40
1040
10.0
1070
   340
1005
7C
1002
}
1001
AcadAnnotative
1000
AnnotativeData
1002
{
1070
     1
1070
     1
1002
}
1001
Pointline21
1002
{
1000
txt
1000
Max im Licht
1000
txt2
1000

1000
pre
1000

1000
suf
1000

1002
}
  0
DIMENSION
  5
13D
102
{ACAD_XDICTIONARY
360
13E
102
}
330
1F
100
AcDbEntity
  8
Bemassung-[1_25]
100
AcDbDimension
280
     0
  2
*D8
 10
-53569.44906616211
 20
-7328.36083984375
 30
0.0
 11
-54035.69906616211
 21
-7328.36083984375
 31
0.0
 70
   160
  1
Max im Licht
 71
     5
 42
932.5
 73
     0
 74
     0
 75
     0
  3
Standard
100
AcDbAlignedDimension
 13
-54501.94906616211
 23
-7392.806640625
 33
0.0
 14
-53569.44906616211
 24
-7392.806640625
 34
0.0
100
AcDbRotatedDimension
1001
ACAD
1000
DSTYLE
1002
{
1070
    79
1070
     2
1070
   275
1070
     0
1070
   179
1070
     1
1070
    71
1070
     0
1070
    72
1070
     0
1070
   273
1070
     8
1070
     4
1000

1070
   143
1040
1.0
1070
   148
1040
0.0
1070
   274
1070
     1
1070
   170
1070
     0
1070
   144
1040
1.0
1070
   277
1070
     6
1070
    78
1070
     8
1070
    45
1040
0.1
1070
   271
1070
     1
1070
     3
1000
<>
1070
   174
1070
     1
1070
   289
1070
     0
1070
    74
1070
     0
1070
    73
1070
     0
1070
   280
1070
     0
1070
   279
1070
     0
1070
   147
1040
1.0
1070
   145
1040
1.0
1070
    77
1070
     1
1070
   146
1040
0.6
1070
   140
1040
3.0
1070
   172
1070
     1
1070
    76
1070
     0
1070
    75
1070
     0
1070
    44
1040
1.5
1070
    42
1040
1.5
1070
    43
1040
10.0
1070
   282
1070
     0
1070
   281
1070
     0
1070
    46
1040
1.5
1070
    41
1040
1.5
1070
   142
1040
0.0
1070
   342
1005
8E
1070
   173
1070
     0
1070
   372
1070
    -2
1070
   371
1070
    -2
1070
    40
1040
10.0
1070
   340
1005
7C
1002
}
1001
AcadAnnotative
1000
AnnotativeData
1002
{
1070
     1
1070
     1
1002
}
1001
Pointline21
1002
{
1000
txt
1000
Max im Licht
1000
txt2
1000

1000
pre
1000

1000
suf
1000

1002
}
  0
DIMENSION
  5
14E
102
{ACAD_XDICTIONARY
360
14F
102
}
330
1F
100
AcDbEntity
  8
Bemassung-[1_25]
100
AcDbDimension
280
     0
  2
*D9
 10
-54501.94906616211
 20
-7328.36083984375
 30
0.0
 11
-54524.44906616211
 21
-7328.36083984375
 31
0.0
 70
   160
 71
     5
 42
45.0
 73
     0
 74
     0
 75
     0
  3
Standard
100
AcDbAlignedDimension
 13
-54546.94906616211
 23
-7392.806640625
 33
0.0
 14
-54501.94906616211
 24
-7392.806640625
 34
0.0
100
AcDbRotatedDimension
1001
AcadAnnotative
1000
AnnotativeData
1002
{
1070
     1
1070
     1
1002
}
  0
DIMENSION
  5
15F
102
{ACAD_XDICTIONARY
360
160
102
}
330
1F
100
AcDbEntity
  8
Bemassung-[1_25]
100
AcDbDimension
280
     0
  2
*D10
 10
-53495.44906616211
 20
-7328.36083984375
 30
0.0
 11
-53532.44906616211
 21
-7328.36083984375
 31
0.0
 70
   160
 71
     5
 42
74.0
 73
     0
 74
     0
 75
     0
  3
Standard
100
AcDbAlignedDimension
 13
-53569.44906616211
 23
-7392.806640625
 33
0.0
 14
-53495.44906616211
 24
-7392.806640625
 34
0.0
100
AcDbRotatedDimension
1001
AcadAnnotative
1000
AnnotativeData
1002
{
1070
     1
1070
     1
1002
}
  0
DIMENSION
  5
170
102
{ACAD_XDICTIONARY
360
171
102
}
330
1F
100
AcDbEntity
  8
Bemassung-[1_25]
100
AcDbDimension
280
     0
  2
*D11
 10
-51072.86328125
 20
-6778.691406249999
 30
0.0
 11
-51072.86328125
 21
-6813.691406249999
 31
0.0
 70
   160
 71
     5
 42
70.00000000000091
 73
     0
 74
     0
 75
     0
 51
-90.0
  3
Standard
100
AcDbAlignedDimension
 13
-51013.36042421467
 23
-6848.69140625
 33
0.0
 14
-51013.36042421467
 24
-6778.691406249999
 34
0.0
 50
90.0
100
AcDbRotatedDimension
1001
AcadAnnotative
1000
AnnotativeData
1002
{
1070
     1
1070
     1
1002
}
  0
DIMENSION
  5
181
102
{ACAD_XDICTIONARY
360
182
102
}
330
1F
100
AcDbEntity
  8
Bemassung-[1_25]
100
AcDbDimension
280
     0
  2
*D12
 10
-51072.86328125
 20
-4778.691589414443
 30
0.0
 11
-51072.86328125
 21
-4848.691589414444
 31
0.0
 70
   160
 71
     5
 42
140.0000000000018
 73
     0
 74
     0
 75
     0
 51
-90.0
  3
Standard
100
AcDbAlignedDimension
 13
-51013.36042421467
 23
-4918.691589414445
 33
0.0
 14
-51013.36042421467
 24
-4778.691589414443
 34
0.0
 50
90.0
100
AcDbRotatedDimension
1001
AcadAnnotative
1000
AnnotativeData
1002
{
1070
     1
1070
     1
1002
}
  0
DIMENSION
  5
192
102
{ACAD_XDICTIONARY
360
193
102
}
330
1F
100
AcDbEntity
  8
Bemassung-[1_25]
100
AcDbDimension
280
     0
  2
*D13
 10
-51072.86328125
 20
-4103.691711366806
 30
0.0
 11
-51072.86328125
 21
-4138.691566091961
 31
0.0
 70
   160
 71
     5
 42
69.99970945031055
 73
     0
 74
     0
 75
     0
 51
-90.0
  3
Standard
100
AcDbAlignedDimension
 13
-51013.36042421467
 23
-4173.691420817117
 33
0.0
 14
-51013.36042421467
 24
-4103.691711366806
 34
0.0
 50
90.0
100
AcDbRotatedDimension
1001
AcadAnnotative
1000
AnnotativeData
1002
{
1070
     1
1070
     1
1002
}
  0
LWPOLYLINE
  5
1A3
102
{ACAD_REACTORS
330
3A7
102
}
330
1F
100
AcDbEntity
  8
L 1
100
AcDbPolyline
 90
        6
 70
     0
 43
0.0
 10
-54421.62124633789
 20
-7459.306640625
 10
-54520.94906616211
 20
-7459.306640625
 10
-54520.94906616211
 20
-7484.306640625
 10
-54541.94906616211
 20
-7484.306640625
 10
-54541.94906616211
 20
-7506.306640625
 10
-54423.78515625
 20
-7506.306640625
  0
LWPOLYLINE
  5
1A4
102
{ACAD_REACTORS
330
3A8
102
}
330
1F
100
AcDbEntity
  8
L 1
100
AcDbPolyline
 90
        6
 70
     0
 43
0.0
 10
-54421.62124633789
 20
-7459.306640625
 10
-53557.44906616211
 20
-7459.306640625
 10
-53557.44906616211
 20
-7484.306640625
 10
-53536.44906616211
 20
-7484.306640625
 10
-53536.44906616211
 20
-7506.306640625
 10
-54423.78515625
 20
-7506.306640625
  0
DIMENSION
  5
1A5
102
{ACAD_XDICTIONARY
360
1A6
102
}
330
1F
100
AcDbEntity
  8
Bemassung-[1_25]
100
AcDbDimension
280
     0
  2
*D14
 10
-51627.94906616211
 20
-7328.36083984375
 30
0.0
 11
-52561.69906616211
 21
-7328.36083984375
 31
0.0
 70
   160
  1
Max im Licht
 71
     5
 42
1867.5
 73
     0
 74
     0
 75
     0
  3
Standard
100
AcDbAlignedDimension
 13
-53495.44906616211
 23
-7392.806640625
 33
0.0
 14
-51627.94906616211
 24
-7392.806640625
 34
0.0
100
AcDbRotatedDimension
1001
ACAD
1000
DSTYLE
1002
{
1070
    79
1070
     2
1070
   275
1070
     0
1070
   179
1070
     1
1070
    71
1070
     0
1070
    72
1070
     0
1070
   273
1070
     8
1070
     4
1000

1070
   143
1040
1.0
1070
   148
1040
0.0
1070
   274
1070
     1
1070
   170
1070
     0
1070
   144
1040
1.0
1070
   277
1070
     6
1070
    78
1070
     8
1070
    45
1040
0.1
1070
   271
1070
     1
1070
     3
1000
<>
1070
   174
1070
     1
1070
   289
1070
     0
1070
    74
1070
     0
1070
    73
1070
     0
1070
   280
1070
     0
1070
   279
1070
     0
1070
   147
1040
1.0
1070
   145
1040
1.0
1070
    77
1070
     1
1070
   146
1040
0.6
1070
   140
1040
3.0
1070
   172
1070
     1
1070
    76
1070
     0
1070
    75
1070
     0
1070
    44
1040
1.5
1070
    42
1040
1.5
1070
    43
1040
10.0
1070
   282
1070
     0
1070
   281
1070
     0
1070
    46
1040
1.5
1070
    41
1040
1.5
1070
   142
1040
0.0
1070
   342
1005
8E
1070
   173
1070
     0
1070
   372
1070
    -2
1070
   371
1070
    -2
1070
    40
1040
10.0
1070
   340
1005
7C
1002
}
1001
AcadAnnotative
1000
AnnotativeData
1002
{
1070
     1
1070
     1
1002
}
1001
Pointline21
1002
{
1000
txt
1000
Max im Licht
1000
txt2
1000

1000
pre
1000

1000
suf
1000

1002
}
  0
LWPOLYLINE
  5
1B6
102
{ACAD_REACTORS
330
3A9
102
}
330
1F
100
AcDbEntity
  8
L 1
100
AcDbPolyline
 90
        7
 70
     0
 43
0.0
 10
-51627.94906616211
 20
-7392.806640625
 10
-51627.94906616211
 20
-7455.306640624999
 10
-51601.94906616211
 20
-7455.306640625001
 10
-51601.94906616211
 20
-7482.806640625
 10
-51582.94906616211
 20
-7482.806640625
 10
-51582.94906616211
 20
-7392.806640625
 10
-51627.94873046875
 20
-7392.806640625
  0
DIMENSION
  5
1B7
102
{ACAD_XDICTIONARY
360
1B8
102
}
330
1F
100
AcDbEntity
  8
Bemassung-[1_25]
100
AcDbDimension
280
     0
  2
*D15
 10
-51582.94906616211
 20
-7328.36083984375
 30
0.0
 11
-51605.44906616211
 21
-7328.36083984375
 31
0.0
 70
   160
 71
     5
 42
45.0
 73
     0
 74
     0
 75
     0
  3
Standard
100
AcDbAlignedDimension
 13
-51627.94906616211
 23
-7392.806640625
 33
0.0
 14
-51582.94906616211
 24
-7392.806640625
 34
0.0
100
AcDbRotatedDimension
1001
AcadAnnotative
1000
AnnotativeData
1002
{
1070
     1
1070
     1
1002
}
  0
LWPOLYLINE
  5
1C8
102
{ACAD_REACTORS
330
3A6
102
}
330
1F
100
AcDbEntity
  8
L 1
100
AcDbPolyline
 90
        9
 70
     0
 43
0.0
 10
-53528.44906616211
 20
-7484.306640625
 10
-53528.44906616211
 20
-7506.306640625
 10
-52561.94906616211
 20
-7506.306640625
 10
-52561.94906616211
 20
-7484.306639625051
 10
-52533.94906616205
 20
-7484.306639625051
 10
-52533.94906616205
 20
-7459.306639625051
 10
-53507.94906616211
 20
-7459.306639625051
 10
-53507.94906616211
 20
-7484.306640625
 10
-53528.44906616211
 20
-7484.306640625
  0
LWPOLYLINE
  5
1C9
330
1F
100
AcDbEntity
  8
L 1
100
AcDbPolyline
 90
        8
 70
     0
 43
0.0
 10
-52554.94906616211
 20
-7484.306639625051
 10
-52554.94906616211
 20
-7506.306640625
 10
-51587.94906616211
 20
-7506.306640625
 10
-51587.94906616211
 20
-7484.306640625
 10
-51615.94906616211
 20
-7484.306640625
 10
-51615.94906616211
 20
-7459.306640625
 10
-52529.9312897065
 20
-7459.306640625
 10
-52529.9312897065
 20
-7484.306640625
  0
LWPOLYLINE
  5
1CA
102
{ACAD_REACTORS
330
39E
102
}
330
1F
100
AcDbEntity
  8
L 1
100
AcDbPolyline
 90
        7
 70
     0
 43
0.0
 10
-51013.36042421467
 20
-4918.691589414444
 10
-51013.36042421467
 20
-4848.691589414443
 10
-50923.36042421467
 20
-4848.691589414443
 10
-50923.36042421467
 20
-4892.691589414443
 10
-50950.86042421467
 20
-4892.691589414443
 10
-50950.86042421467
 20
-4918.691589414444
 10
-51013.36042421467
 20
-4918.691589414444
  0
LWPOLYLINE
  5
1CB
102
{ACAD_REACTORS
330
39F
102
}
330
1F
100
AcDbEntity
  8
L 1
100
AcDbPolyline
 90
        7
 70
     0
 43
0.0
 10
-51013.36042421467
 20
-4778.691589414444
 10
-51013.36042421467
 20
-4848.691589414445
 10
-50923.36042421467
 20
-4848.691589414445
 10
-50923.36042421467
 20
-4804.691589414445
 10
-50950.86042421467
 20
-4804.691589414445
 10
-50950.86042421467
 20
-4778.691589414444
 10
-51013.36042421467
 20
-4778.691589414444
  0
LWPOLYLINE
  5
1CC
102
{ACAD_REACTORS
330
39D
102
}
330
1F
100
AcDbEntity
  8
L 1
100
AcDbPolyline
 90
        7
 70
     0
 43
0.0
 10
-51013.36042421467
 20
-4173.691711366806
 10
-51013.36042421467
 20
-4103.691711366805
 10
-50923.36042421467
 20
-4103.691711366805
 10
-50923.36042421467
 20
-4147.691711366805
 10
-50950.86042421467
 20
-4147.691711366805
 10
-50950.86042421467
 20
-4173.691711366806
 10
-51013.36042421467
 20
-4173.691711366806
  0
LWPOLYLINE
  5
1CD
102
{ACAD_REACTORS
330
3A0
102
}
330
1F
100
AcDbEntity
  8
L 1
100
AcDbPolyline
 90
        7
 70
     0
 43
0.0
 10
-50443.47761171467
 20
-6778.691406249999
 10
-50443.47761171467
 20
-6848.69140625
 10
-50353.47761171467
 20
-6848.69140625
 10
-50353.47761171467
 20
-6804.69140625
 10
-50380.97761171467
 20
-6804.69140625
 10
-50380.97761171467
 20
-6778.691406249999
 10
-50443.47761171467
 20
-6778.691406249999
  0
LWPOLYLINE
  5
1CE
102
{ACAD_REACTORS
330
394
102
}
330
1F
100
AcDbEntity
  8
L 1
100
AcDbPolyline
 90
        8
 70
     1
 43
0.0
 10
-50351.97761171467
 20
-4112.552260660866
 10
-50351.97761171467
 20
-4162.691420817116
 10
-50376.97761171467
 20
-4162.691420817116
 10
-50376.97761171467
 20
-6790.69140625
 10
-50351.97761171467
 20
-6790.69140625
 10
-50351.97761171467
 20
-6825.69140625
 10
-50330.97761171467
 20
-6825.69140625
 10
-50330.97761171467
 20
-4112.552260660866
  0
DIMENSION
  5
1CF
102
{ACAD_XDICTIONARY
360
1D0
102
}
330
1F
100
AcDbEntity
  8
Bemassung-[1_25]
100
AcDbDimension
280
     0
  2
*D16
 10
-50502.98046875
 20
-4173.691420817117
 30
0.0
 11
-50502.98046875
 21
-5476.191413533557
 31
0.0
 70
   160
  1
Max im Licht
 71
     5
 42
2604.999985432883
 73
     0
 74
     0
 75
     0
 51
-90.0
  3
Standard
100
AcDbAlignedDimension
 13
-50443.47761171467
 23
-6778.691406249999
 33
0.0
 14
-50443.47761171467
 24
-4173.691420817117
 34
0.0
 50
90.0
100
AcDbRotatedDimension
1001
ACAD
1000
DSTYLE
1002
{
1070
    79
1070
     2
1070
   275
1070
     0
1070
   179
1070
     1
1070
    71
1070
     0
1070
    72
1070
     0
1070
   273
1070
     8
1070
     4
1000

1070
   143
1040
1.0
1070
   148
1040
0.0
1070
   274
1070
     1
1070
   170
1070
     0
1070
   144
1040
1.0
1070
   277
1070
     6
1070
    78
1070
     8
1070
    45
1040
0.1
1070
   271
1070
     1
1070
     3
1000
<>
1070
   174
1070
     1
1070
   289
1070
     0
1070
    74
1070
     0
1070
    73
1070
     0
1070
   280
1070
     0
1070
   279
1070
     0
1070
   147
1040
1.0
1070
   145
1040
1.0
1070
    77
1070
     1
1070
   146
1040
0.6
1070
   140
1040
3.0
1070
   172
1070
     1
1070
    76
1070
     0
1070
    75
1070
     0
1070
    44
1040
1.5
1070
    42
1040
1.5
1070
    43
1040
10.0
1070
   282
1070
     0
1070
   281
1070
     0
1070
    46
1040
1.5
1070
    41
1040
1.5
1070
   142
1040
0.0
1070
   342
1005
8E
1070
   173
1070
     0
1070
   372
1070
    -2
1070
   371
1070
    -2
1070
    40
1040
10.0
1070
   340
1005
7C
1002
}
1001
AcadAnnotative
1000
AnnotativeData
1002
{
1070
     1
1070
     1
1002
}
1001
Pointline21
1002
{
1000
txt
1000
Max im Licht
1000
txt2
1000

1000
pre
1000

1000
suf
1000

1002
}
  0
DIMENSION
  5
1E0
102
{ACAD_XDICTIONARY
360
1E1
102
}
330
1F
100
AcDbEntity
  8
Bemassung-[1_25]
100
AcDbDimension
280
     0
  2
*D17
 10
-50502.98046875
 20
-6778.691406249999
 30
0.0
 11
-50502.98046875
 21
-6813.691406249999
 31
0.0
 70
   160
 71
     5
 42
70.00000000000091
 73
     0
 74
     0
 75
     0
 51
-90.0
  3
Standard
100
AcDbAlignedDimension
 13
-50443.47761171467
 23
-6848.69140625
 33
0.0
 14
-50443.47761171467
 24
-6778.691406249999
 34
0.0
 50
90.0
100
AcDbRotatedDimension
1001
AcadAnnotative
1000
AnnotativeData
1002
{
1070
     1
1070
     1
1002
}
  0
DIMENSION
  5
1F1
102
{ACAD_XDICTIONARY
360
1F2
102
}
330
1F
100
AcDbEntity
  8
Bemassung-[1_25]
100
AcDbDimension
280
     0
  2
*D18
 10
-50502.98046875
 20
-4103.691711366806
 30
0.0
 11
-50502.98046875
 21
-4138.691566091961
 31
0.0
 70
   160
 71
     5
 42
69.99970945031055
 73
     0
 74
     0
 75
     0
 51
-90.0
  3
Standard
100
AcDbAlignedDimension
 13
-50443.47761171467
 23
-4173.691420817117
 33
0.0
 14
-50443.47761171467
 24
-4103.691711366806
 34
0.0
 50
90.0
100
AcDbRotatedDimension
1001
AcadAnnotative
1000
AnnotativeData
1002
{
1070
     1
1070
     1
1002
}
  0
LWPOLYLINE
  5
202
102
{ACAD_REACTORS
330
39C
102
}
330
1F
100
AcDbEntity
  8
L 1
100
AcDbPolyline
 90
        7
 70
     0
 43
0.0
 10
-50443.47761171467
 20
-4173.691711366806
 10
-50443.47761171467
 20
-4103.691711366805
 10
-50353.47761171467
 20
-4103.691711366805
 10
-50353.47761171467
 20
-4147.691711366805
 10
-50380.97761171467
 20
-4147.691711366805
 10
-50380.97761171467
 20
-4173.691711366806
 10
-50443.47761171467
 20
-4173.691711366806
  0
LWPOLYLINE
  5
203
330
1F
100
AcDbEntity
  8
L 1
100
AcDbPolyline
 90
        3
 70
     0
 43
0.0
 10
-54519.94906616211
 20
-9030.06689453125
 10
-54519.94906616211
 20
-9019.06689453125
 10
-54495.67963312339
 20
-9019.06689453125
  0
LWPOLYLINE
  5
204
330
1F
100
AcDbEntity
  8
L 1
100
AcDbPolyline
 90
        3
 70
     0
 43
0.0
 10
-54519.94906616211
 20
-9030.06689453125
 10
-54519.94906616211
 20
-9019.06689453125
 10
-54495.67963312339
 20
-9019.06689453125
  0
LWPOLYLINE
  5
205
102
{ACAD_REACTORS
330
398
102
}
330
1F
100
AcDbEntity
  8
L 1
100
AcDbPolyline
 90
        7
 70
     0
 43
0.0
 10
-54548.94906616211
 20
-9042.56689453125
 10
-54548.94906616211
 20
-8952.56689453125
 10
-54500.94906616211
 20
-8952.56689453125
 10
-54500.94906616211
 20
-9015.06689453125
 10
-54526.94906616211
 20
-9015.06689453125
 10
-54526.94906616211
 20
-9042.56689453125
 10
-54548.94906616211
 20
-9042.56689453125
  0
LWPOLYLINE
  5
206
102
{ACAD_REACTORS
330
39B
102
}
330
1F
100
AcDbEntity
  8
L 1
100
AcDbPolyline
 90
        6
 70
     0
 43
0.0
 10
-54420.62124633789
 20
-9019.06689453125
 10
-54519.94906616211
 20
-9019.06689453125
 10
-54519.94906616211
 20
-9044.06689453125
 10
-54540.94906616211
 20
-9044.06689453125
 10
-54540.94906616211
 20
-9066.06689453125
 10
-54422.78515625
 20
-9066.06689453125
  0
LWPOLYLINE
  5
207
102
{ACAD_REACTORS
330
38B
102
}
330
1F
100
AcDbEntity
  8
L 1
100
AcDbPolyline
 90
        5
 70
     0
 43
0.0
 10
-54569.94906616211
 20
-9890.52099609375
 10
-54547.94906616211
 20
-9890.52099609375
 10
-54547.94906616211
 20
-9799.02099609375
 10
-54569.94906616211
 20
-9799.02099609375
 10
-54569.94906616211
 20
-9890.52099609375
  0
LWPOLYLINE
  5
208
102
{ACAD_REACTORS
330
38F
102
}
330
1F
100
AcDbEntity
  8
L 1
100
AcDbPolyline
 90
        5
 70
     0
 43
0.0
 10
-54547.94906616211
 20
-9912.52099609375
 10
-54547.94906616211
 20
-9890.52099609375
 10
-54635.94906616209
 20
-9890.52099609375
 10
-54635.94906616209
 20
-9912.52099609375
 10
-54547.94906616211
 20
-9912.52099609375
  0
LWPOLYLINE
  5
209
330
1F
100
AcDbEntity
  8
L 1
100
AcDbPolyline
 90
        3
 70
     0
 43
0.0
 10
-54518.94906616211
 20
-9876.52099609375
 10
-54518.94906616211
 20
-9865.52099609375
 10
-54494.67963312339
 20
-9865.52099609375
  0
LWPOLYLINE
  5
20A
330
1F
100
AcDbEntity
  8
L 1
100
AcDbPolyline
 90
        3
 70
     0
 43
0.0
 10
-54518.94906616211
 20
-9876.52099609375
 10
-54518.94906616211
 20
-9865.52099609375
 10
-54494.67963312339
 20
-9865.52099609375
  0
LWPOLYLINE
  5
20B
102
{ACAD_REACTORS
330
399
102
}
330
1F
100
AcDbEntity
  8
L 1
100
AcDbPolyline
 90
        7
 70
     0
 43
0.0
 10
-54547.94906616211
 20
-9889.02099609375
 10
-54547.94906616211
 20
-9799.02099609375
 10
-54499.94906616211
 20
-9799.02099609375
 10
-54499.94906616211
 20
-9861.52099609375
 10
-54525.94906616211
 20
-9861.52099609375
 10
-54525.94906616211
 20
-9889.02099609375
 10
-54547.94906616211
 20
-9889.02099609375
  0
LWPOLYLINE
  5
20C
102
{ACAD_REACTORS
330
39A
102
}
330
1F
100
AcDbEntity
  8
L 1
100
AcDbPolyline
 90
        6
 70
     0
 43
0.0
 10
-54419.62124633789
 20
-9865.52099609375
 10
-54518.94906616211
 20
-9865.52099609375
 10
-54518.94906616211
 20
-9890.52099609375
 10
-54539.94906616211
 20
-9890.52099609375
 10
-54539.94906616211
 20
-9912.52099609375
 10
-54421.78515625
 20
-9912.52099609375
  0
LWPOLYLINE
  5
20D
102
{ACAD_REACTORS
330
38D
102
}
330
1F
100
AcDbEntity
  8
L 1
100
AcDbPolyline
 90
        5
 70
     0
 43
0.0
 10
-54643.94906616211
 20
-9890.52099609375
 10
-54621.94906616211
 20
-9890.52099609375
 10
-54621.94906616211
 20
-9799.02099609375
 10
-54643.94906616211
 20
-9799.02099609375
 10
-54643.94906616211
 20
-9890.52099609375
  0
INSERT
  5
20E
330
1F
100
AcDbEntity
  8
L 025-[1_5]
100
AcDbBlockReference
  2
Rafix.drg
 10
-54600.1067242788
 20
-9845.919921875
 30
0.0
 42
0.8
 50
270.0
  0
INSERT
  5
20F
330
1F
100
AcDbEntity
  8
L 025-[1_5]
100
AcDbBlockReference
  2
Rafix.drg
 10
-54501.44775390625
 20
-9834.021484375
 30
0.0
 42
1.8
 50
270.0
  0
LWPOLYLINE
  5
210
330
1F
100
AcDbEntity
  8
L 2
100
AcDbPolyline
 90
        4
 70
     0
 43
0.0
 10
-50235.9765625
 20
-6856.69140625
 10
-50618.84375
 20
-6856.69140625
 10
-50618.84375
 20
-4095.691711366806
 10
-50120.0703125
 20
-4095.691711366806
  0
LWPOLYLINE
  5
211
102
{ACAD_REACTORS
330
3AA
102
}
330
1F
100
AcDbEntity
  8
L 1
100
AcDbPolyline
 90
        5
 70
     0
 43
0.0
 10
-49477.078125
 20
-4103.691711366806
 10
-49477.078125
 20
-4125.691711366806
 10
-49568.578125
 20
-4125.691711366806
 10
-49568.578125
 20
-4103.691711366806
 10
-49477.078125
 20
-4103.691711366806
  0
LWPOLYLINE
  5
212
102
{ACAD_REACTORS
330
3AC
102
}
330
1F
100
AcDbEntity
  8
L 1
100
AcDbPolyline
 90
        5
 70
     0
 43
0.0
 10
-49455.078125
 20
-4125.691711366806
 10
-49477.078125
 20
-4125.691711366806
 10
-49477.078125
 20
-4034.691711366806
 10
-49455.078125
 20
-4034.691711366806
 10
-49455.078125
 20
-4125.691711366806
  0
LWPOLYLINE
  5
213
330
1F
100
AcDbEntity
  8
L 1
100
AcDbPolyline
 90
        3
 70
     0
 43
0.0
 10
-49491.078125
 20
-4154.691711366806
 10
-49502.078125
 20
-4154.691711366806
 10
-49502.078125
 20
-4178.961144405523
  0
LWPOLYLINE
  5
214
330
1F
100
AcDbEntity
  8
L 1
100
AcDbPolyline
 90
        3
 70
     0
 43
0.0
 10
-49491.078125
 20
-4154.691711366806
 10
-49502.078125
 20
-4154.691711366806
 10
-49502.078125
 20
-4178.961144405523
  0
LWPOLYLINE
  5
215
102
{ACAD_REACTORS
330
3A4
102
}
330
1F
100
AcDbEntity
  8
L 1
100
AcDbPolyline
 90
        7
 70
     0
 43
0.0
 10
-49478.578125
 20
-4125.691711366806
 10
-49568.578125
 20
-4125.691711366806
 10
-49568.578125
 20
-4173.691711366806
 10
-49506.078125
 20
-4173.691711366806
 10
-49506.078125
 20
-4147.691711366806
 10
-49478.578125
 20
-4147.691711366806
 10
-49478.578125
 20
-4125.691711366806
  0
LWPOLYLINE
  5
216
102
{ACAD_REACTORS
330
3AD
102
}
330
1F
100
AcDbEntity
  8
L 1
100
AcDbPolyline
 90
        6
 70
     0
 43
0.0
 10
-49502.07812499999
 20
-4254.019531191025
 10
-49502.078125
 20
-4154.691711366806
 10
-49477.078125
 20
-4154.691711366806
 10
-49477.078125
 20
-4133.691711366806
 10
-49455.078125
 20
-4133.691711366806
 10
-49455.07812499999
 20
-4251.855621278915
  0
LWPOLYLINE
  5
217
102
{ACAD_REACTORS
330
3AE
102
}
330
1F
100
AcDbEntity
  8
L 1
100
AcDbPolyline
 90
        5
 70
     0
 43
0.0
 10
-49477.078125
 20
-6834.551955544059
 10
-49477.078125
 20
-6812.551955544059
 10
-49568.578125
 20
-6812.551955544059
 10
-49568.578125
 20
-6834.551955544059
 10
-49477.078125
 20
-6834.551955544059
  0
LWPOLYLINE
  5
218
102
{ACAD_REACTORS
330
3AB
102
}
330
1F
100
AcDbEntity
  8
L 1
100
AcDbPolyline
 90
        5
 70
     0
 43
0.0
 10
-49455.078125
 20
-6812.551955544059
 10
-49477.078125
 20
-6812.551955544059
 10
-49477.078125
 20
-6903.551955544059
 10
-49455.078125
 20
-6903.551955544059
 10
-49455.078125
 20
-6812.551955544059
  0
LWPOLYLINE
  5
219
330
1F
100
AcDbEntity
  8
L 1
100
AcDbPolyline
 90
        3
 70
     0
 43
0.0
 10
-49491.078125
 20
-6783.551955544059
 10
-49502.078125
 20
-6783.551955544059
 10
-49502.078125
 20
-6759.282522505342
  0
LWPOLYLINE
  5
21A
330
1F
100
AcDbEntity
  8
L 1
100
AcDbPolyline
 90
        3
 70
     0
 43
0.0
 10
-49491.078125
 20
-6783.551955544059
 10
-49502.078125
 20
-6783.551955544059
 10
-49502.078125
 20
-6759.282522505342
  0
LWPOLYLINE
  5
21B
102
{ACAD_REACTORS
330
3A3
102
}
330
1F
100
AcDbEntity
  8
L 1
100
AcDbPolyline
 90
        7
 70
     0
 43
0.0
 10
-49478.578125
 20
-6812.551955544059
 10
-49568.578125
 20
-6812.551955544059
 10
-49568.578125
 20
-6764.551955544059
 10
-49506.078125
 20
-6764.551955544059
 10
-49506.078125
 20
-6790.551955544059
 10
-49478.578125
 20
-6790.551955544059
 10
-49478.578125
 20
-6812.551955544059
  0
LWPOLYLINE
  5
21C
102
{ACAD_REACTORS
330
3AF
102
}
330
1F
100
AcDbEntity
  8
L 1
100
AcDbPolyline
 90
        6
 70
     0
 43
0.0
 10
-49502.07812499999
 20
-6684.22413571984
 10
-49502.078125
 20
-6783.551955544059
 10
-49477.078125
 20
-6783.551955544059
 10
-49477.07812499999
 20
-6804.551955544059
 10
-49455.07812499999
 20
-6804.551955544059
 10
-49455.07812499999
 20
-6686.388045631949
  0
LWPOLYLINE
  5
21D
102
{ACAD_REACTORS
330
392
102
}
330
1F
100
AcDbEntity
  8
L 1
100
AcDbPolyline
 90
        7
 70
     0
 43
0.0
 10
-49009.88911073811
 20
-6834.551955544055
 10
-49009.88911073811
 20
-7134.553176247118
 10
-48913.88911073811
 20
-7134.553176247118
 10
-48913.88911073811
 20
-6812.551955544051
 10
-48935.89287194137
 20
-6812.551955544051
 10
-48935.89287194137
 20
-6834.551955544055
 10
-49009.88911073811
 20
-6834.551955544055
  0
LWPOLYLINE
  5
21E
102
{ACAD_REACTORS
330
391
102
}
330
1F
100
AcDbEntity
  8
L 1
100
AcDbPolyline
 90
        9
 70
     0
 43
0.0
 10
-49011.38883762964
 20
-4095.691711366806
 10
-48936.38911073812
 20
-4095.691711366806
 10
-48936.38911073812
 20
-4125.690849278751
 10
-48913.88911073812
 20
-4125.690849278751
 10
-48913.88911073812
 20
-3629.691711366864
 10
-48937.38911073812
 20
-3629.691711366864
 10
-48937.38911073812
 20
-3598.692504945096
 10
-49011.38883762964
 20
-3598.692504945096
 10
-49011.38883762964
 20
-4095.691711366806
  0
LWPOLYLINE
  5
21F
330
1F
100
AcDbEntity
  8
L 2
100
AcDbPolyline
 90
        2
 70
     0
 43
0.0
 10
-49198.2890625
 20
-7134.553176247118
 10
-48613.203125
 20
-7134.553176247118
  0
LWPOLYLINE
  5
220
330
1F
100
AcDbEntity
  8
L 2
100
AcDbPolyline
 90
        2
 70
     0
 43
0.0
 10
-49334.91015625
 20
-3598.692504945096
 10
-48715.76171875
 20
-3598.692504945096
  0
LWPOLYLINE
  5
221
330
1F
100
AcDbEntity
  8
L 1
100
AcDbPolyline
 90
        3
 70
     0
 43
0.0
 10
-48949.88911073812
 20
-4161.691711366806
 10
-48960.88911073812
 20
-4161.691711366806
 10
-48960.88911073812
 20
-4178.961144405523
  0
LWPOLYLINE
  5
222
330
1F
100
AcDbEntity
  8
L 1
100
AcDbPolyline
 90
        3
 70
     0
 43
0.0
 10
-48949.88911073812
 20
-4161.691711366806
 10
-48960.88911073812
 20
-4161.691711366806
 10
-48960.88911073812
 20
-4178.961144405523
  0
LWPOLYLINE
  5
223
102
{ACAD_REACTORS
330
3A5
102
}
330
1F
100
AcDbEntity
  8
L 1
100
AcDbPolyline
 90
        7
 70
     0
 43
0.0
 10
-48937.38911073812
 20
-4103.691711366806
 10
-49027.38911073812
 20
-4103.691711366806
 10
-49027.38911073812
 20
-4173.691711366806
 10
-48964.88911073812
 20
-4173.691711366806
 10
-48964.88911073812
 20
-4147.691711366806
 10
-48937.38911073812
 20
-4147.691711366806
 10
-48937.38911073812
 20
-4103.691711366806
  0
LWPOLYLINE
  5
224
102
{ACAD_REACTORS
330
3B0
102
}
330
1F
100
AcDbEntity
  8
L 1
100
AcDbPolyline
 90
        6
 70
     0
 43
0.0
 10
-48960.88911073811
 20
-4254.019531191025
 10
-48960.88911073812
 20
-4161.691711366806
 10
-48935.88911073812
 20
-4161.691711366806
 10
-48935.88911073812
 20
-4133.691711366806
 10
-48913.88911073812
 20
-4133.691711366806
 10
-48913.88911073811
 20
-4251.855621278915
  0
LWPOLYLINE
  5
225
330
1F
100
AcDbEntity
  8
L 1
100
AcDbPolyline
 90
        3
 70
     0
 43
0.0
 10
-48949.88911073812
 20
-6776.551955544055
 10
-48960.88911073812
 20
-6776.551955544055
 10
-48960.88911073812
 20
-6759.282522505338
  0
LWPOLYLINE
  5
226
330
1F
100
AcDbEntity
  8
L 1
100
AcDbPolyline
 90
        3
 70
     0
 43
0.0
 10
-48949.88911073812
 20
-6776.551955544055
 10
-48960.88911073812
 20
-6776.551955544055
 10
-48960.88911073812
 20
-6759.282522505338
  0
LWPOLYLINE
  5
227
102
{ACAD_REACTORS
330
3A2
102
}
330
1F
100
AcDbEntity
  8
L 1
100
AcDbPolyline
 90
        7
 70
     0
 43
0.0
 10
-48937.38911073812
 20
-6834.551955544055
 10
-49027.38911073812
 20
-6834.551955544055
 10
-49027.38911073812
 20
-6764.551955544055
 10
-48964.88911073812
 20
-6764.551955544055
 10
-48964.88911073812
 20
-6790.551955544055
 10
-48937.38911073812
 20
-6790.551955544055
 10
-48937.38911073812
 20
-6834.551955544055
  0
LWPOLYLINE
  5
228
102
{ACAD_REACTORS
330
3B1
102
}
330
1F
100
AcDbEntity
  8
L 1
100
AcDbPolyline
 90
        6
 70
     0
 43
0.0
 10
-48960.88911073811
 20
-6684.224135719836
 10
-48960.88911073812
 20
-6776.551955544055
 10
-48935.88911073812
 20
-6776.551955544055
 10
-48935.88911073811
 20
-6804.551955544055
 10
-48913.88911073811
 20
-6804.551955544055
 10
-48913.88911073811
 20
-6686.388045631946
  0
LWPOLYLINE
  5
229
330
1F
100
AcDbEntity
  8
L 2
100
AcDbPolyline
 90
        4
 70
     0
 43
0.0
 10
-51355.70529174805
 20
-7264.229553645559
 10
-51575.94906616211
 20
-7264.229553645559
 10
-51575.94906616211
 20
-7506.306640625
 10
-51371.20919799805
 20
-7506.306640625
  0
LWPOLYLINE
  5
22A
330
1F
100
AcDbEntity
  8
L 2
100
AcDbPolyline
 90
        4
 70
     0
 43
0.0
 10
-55657.50082397461
 20
-9670.443909114309
 10
-54643.94906616211
 20
-9670.443909114309
 10
-54643.94906616211
 20
-9912.52099609375
 10
-55641.99691772461
 20
-9912.52099609375
  0
LWPOLYLINE
  5
22B
330
1F
100
AcDbEntity
  8
L 2
100
AcDbPolyline
 90
        4
 70
     0
 43
0.0
 10
-49727.15521197944
 20
-3817.510559023056
 10
-49727.15521197944
 20
-4095.691711366806
 10
-49485.078125
 20
-4095.691711366806
 10
-49485.078125
 20
-3833.014465273056
  0
LWPOLYLINE
  5
22C
330
1F
100
AcDbEntity
  8
L 2
100
AcDbPolyline
 90
        4
 70
     0
 43
0.0
 10
-55586.50082397461
 20
-8793.989807551809
 10
-54578.94906616211
 20
-8793.989807551809
 10
-54578.94906616211
 20
-9036.06689453125
 10
-55570.99691772461
 20
-9036.06689453125
  0
TEXT
  5
22D
102
{ACAD_XDICTIONARY
360
22E
102
}
330
1F
100
AcDbEntity
  8
Text-[1_1]
100
AcDbText
 10
-53978.6901550293
 20
-6935.3447265625
 30
0.0
 40
60.0
  1
Sockel max. Höhe 300  mm / Länge unbegrenzt
 11
-53978.6901550293
 21
-6875.3447265625
 31
0.0
100
AcDbText
 73
     3
1001
AcadAnnotative
1000
AnnotativeData
1002
{
1070
     1
1070
     1
1002
}
  0
LWPOLYLINE
  5
232
330
1F
100
AcDbEntity
  8
L 2
100
AcDbPolyline
 90
        4
 70
     1
 43
0.0
 10
-54553.94906616211
 20
-6856.69140625
 10
-51575.94906616211
 20
-6856.69140625
 10
-51575.94906616211
 20
-4110.7490234375
 10
-54553.94906616211
 20
-4110.7490234375
  0
LWPOLYLINE
  5
233
330
1F
100
AcDbEntity
  8
L 2
100
AcDbPolyline
 90
        4
 70
     0
 43
0.0
 10
-55565.50082397461
 20
-7264.229553645559
 10
-54553.94906616211
 20
-7264.229553645559
 10
-54553.94906616211
 20
-7506.306640625
 10
-55549.99691772461
 20
-7506.306640625
  0
LWPOLYLINE
  5
234
330
1F
100
AcDbEntity
  8
L 2
100
AcDbPolyline
 90
        4
 70
     0
 43
0.0
 10
-49727.15521197944
 20
-7120.733107887809
 10
-49727.15521197944
 20
-6842.551955544059
 10
-49485.078125
 20
-6842.551955544059
 10
-49485.078125
 20
-7105.229201637809
  0
DIMENSION
  5
235
102
{ACAD_XDICTIONARY
360
236
102
}
330
1F
100
AcDbEntity
  8
Bemassung-[1_25]
100
AcDbDimension
280
     0
  2
*D19
 10
-51072.86328125
 20
-4173.691420817117
 30
0.0
 11
-51072.86328125
 21
-4476.191505115779
 31
0.0
 70
   160
  1
Max im Licht
 71
     5
 42
605.0001685973266
 73
     0
 74
     0
 75
     0
 51
-90.0
  3
Standard
100
AcDbAlignedDimension
 13
-51013.36042421467
 23
-4778.691589414443
 33
0.0
 14
-51013.36042421467
 24
-4173.691420817117
 34
0.0
 50
90.0
100
AcDbRotatedDimension
1001
ACAD
1000
DSTYLE
1002
{
1070
    79
1070
     2
1070
   275
1070
     0
1070
   179
1070
     1
1070
    71
1070
     0
1070
    72
1070
     0
1070
   273
1070
     8
1070
     4
1000

1070
   143
1040
1.0
1070
   148
1040
0.0
1070
   274
1070
     1
1070
   170
1070
     0
1070
   144
1040
1.0
1070
   277
1070
     6
1070
    78
1070
     8
1070
    45
1040
0.1
1070
   271
1070
     1
1070
     3
1000
<>
1070
   174
1070
     1
1070
   289
1070
     0
1070
    74
1070
     0
1070
    73
1070
     0
1070
   280
1070
     0
1070
   279
1070
     0
1070
   147
1040
1.0
1070
   145
1040
1.0
1070
    77
1070
     1
1070
   146
1040
0.6
1070
   140
1040
3.0
1070
   172
1070
     1
1070
    76
1070
     0
1070
    75
1070
     0
1070
    44
1040
1.5
1070
    42
1040
1.5
1070
    43
1040
10.0
1070
   282
1070
     0
1070
   281
1070
     0
1070
    46
1040
1.5
1070
    41
1040
1.5
1070
   142
1040
0.0
1070
   342
1005
8E
1070
   173
1070
     0
1070
   372
1070
    -2
1070
   371
1070
    -2
1070
    40
1040
10.0
1070
   340
1005
7C
1002
}
1001
AcadAnnotative
1000
AnnotativeData
1002
{
1070
     1
1070
     1
1002
}
1001
Pointline21
1002
{
1000
txt
1000
Max im Licht
1000
txt2
1000

1000
pre
1000

1000
suf
1000

1002
}
  0
DIMENSION
  5
246
102
{ACAD_XDICTIONARY
360
247
102
}
330
1F
100
AcDbEntity
  8
Bemassung-[1_5]
100
AcDbDimension
280
     0
  2
*D20
 10
-53495.44906616211
 20
-7376.36181640625
 30
0.0
 11
-53532.44906616211
 21
-7376.36181640625
 31
0.0
 70
   160
 71
     5
 42
74.0
 73
     0
 74
     0
 75
     0
  3
Standard
100
AcDbAlignedDimension
 13
-53569.44906616211
 23
-7392.806640625
 33
0.0
 14
-53495.44906616211
 24
-7392.806640625
 34
0.0
100
AcDbRotatedDimension
1001
AcadAnnotative
1000
AnnotativeData
1002
{
1070
     1
1070
     1
1002
}
  0
DIMENSION
  5
257
102
{ACAD_XDICTIONARY
360
258
102
}
330
1F
100
AcDbEntity
  8
Bemassung-[1_5]
100
AcDbDimension
280
     0
  2
*D21
 10
-54657.921875
 20
-8952.56689453125
 30
0.0
 11
-54657.921875
 21
-9009.31689453125
 31
0.0
 70
   160
 71
     5
 42
113.5
 73
     0
 74
     0
 75
     0
 51
-90.0
  3
Standard
100
AcDbAlignedDimension
 13
-54639.94906616211
 23
-9066.06689453125
 33
0.0
 14
-54570.94906616211
 24
-8952.56689453125
 34
0.0
 50
90.0
100
AcDbRotatedDimension
1001
AcadAnnotative
1000
AnnotativeData
1002
{
1070
     1
1070
     1
1002
}
  0
LWPOLYLINE
  5
268
330
1F
100
AcDbEntity
  8
L 025-[1_5]
100
AcDbPolyline
 90
        5
 70
     0
 43
0.0
 10
-54635.94906616204
 20
-9912.52099609375
 42
1.137975863152002
 10
-54643.94906616205
 20
-9912.520996093752
 10
-54643.94906616205
 20
-9901.719726562502
 10
-54635.94906616204
 20
-9901.7197265625
 10
-54635.94906616204
 20
-9912.52099609375
  0
LWPOLYLINE
  5
269
330
1F
100
AcDbEntity
  8
L 025-[1_5]
100
AcDbPolyline
 90
        5
 70
     0
 43
0.0
 10
-54639.45687866202
 20
-9044.066894531243
 42
1.137975863152002
 10
-54639.45687866202
 20
-9036.066894531228
 10
-54628.65560913077
 20
-9036.066894531228
 10
-54628.65560913077
 20
-9044.066894531243
 10
-54639.45687866202
 20
-9044.066894531243
  0
LWPOLYLINE
  5
26A
330
1F
100
AcDbEntity
  8
L 025-[1_5]
100
AcDbPolyline
 90
        5
 70
     0
 43
0.0
 10
-49485.07812499998
 20
-6903.504882812413
 42
-1.137975863152002
 10
-49477.07812499996
 20
-6903.504882812413
 10
-49477.07812499996
 20
-6892.703613281163
 10
-49485.07812499998
 20
-6892.703613281163
 10
-49485.07812499998
 20
-6903.504882812413
  0
LWPOLYLINE
  5
26B
330
1F
100
AcDbEntity
  8
L 025-[1_5]
100
AcDbPolyline
 90
        5
 70
     0
 43
0.0
 10
-49485.07812499998
 20
-4034.738784098445
 42
1.137975863152002
 10
-49477.07812499996
 20
-4034.738784098446
 10
-49477.07812499996
 20
-4045.540053629696
 10
-49485.07812499998
 20
-4045.540053629697
 10
-49485.07812499998
 20
-4034.738784098445
  0
LWPOLYLINE
  5
26C
330
1F
100
AcDbEntity
  8
L 025-[1_5]
100
AcDbPolyline
 90
        5
 70
     0
 43
0.0
 10
-50353.52468444631
 20
-4095.69171136681
 42
1.137975863152002
 10
-50353.5246844463
 20
-4103.691711366825
 10
-50364.32595397755
 20
-4103.691711366825
 10
-50364.32595397756
 20
-4095.69171136681
 10
-50353.52468444631
 20
-4095.69171136681
  0
LWPOLYLINE
  5
26D
330
1F
100
AcDbEntity
  8
L 025-[1_5]
100
AcDbPolyline
 90
        5
 70
     0
 43
0.0
 10
-50353.52468444631
 20
-6856.691406249993
 42
-1.137975863152002
 10
-50353.52468444631
 20
-6848.691406249978
 10
-50364.32595397756
 20
-6848.691406249978
 10
-50364.32595397756
 20
-6856.691406249993
 10
-50353.52468444631
 20
-6856.691406249993
  0
LWPOLYLINE
  5
26E
330
1F
100
AcDbEntity
  8
L 025-[1_5]
100
AcDbPolyline
 90
        5
 70
     0
 43
0.0
 10
-50923.40749694631
 20
-6856.691406249993
 42
-1.137975863152002
 10
-50923.40749694631
 20
-6848.691406249978
 10
-50934.20876647756
 20
-6848.691406249978
 10
-50934.20876647756
 20
-6856.691406249993
 10
-50923.40749694631
 20
-6856.691406249993
  0
LWPOLYLINE
  5
26F
330
1F
100
AcDbEntity
  8
L 025-[1_5]
100
AcDbPolyline
 90
        5
 70
     0
 43
0.0
 10
-50923.40749694631
 20
-4095.691711366813
 42
1.137975863152002
 10
-50923.4074969463
 20
-4103.691711366829
 10
-50934.20876647755
 20
-4103.691711366829
 10
-50934.20876647756
 20
-4095.691711366813
 10
-50923.40749694631
 20
-4095.691711366813
  0
CIRCLE
  5
270
330
1F
100
AcDbEntity
  8
L 025-[1_5]
100
AcDbCircle
 10
-49561.7579345703
 20
-6838.685847776309
 30
0.0
 40
3.999999999998753
  0
CIRCLE
  5
271
330
1F
100
AcDbEntity
  8
L 025-[1_5]
100
AcDbCircle
 10
-49564.8781517653
 20
-4098.937169345551
 30
0.0
 40
4.000000000001649
  0
CIRCLE
  5
272
330
1F
100
AcDbEntity
  8
L 025-[1_5]
100
AcDbCircle
 10
-50438.03830801531
 20
-4099.771336884999
 30
0.0
 40
4.000000000001649
  0
CIRCLE
  5
273
330
1F
100
AcDbEntity
  8
L 025-[1_5]
100
AcDbCircle
 10
-51005.21408926531
 20
-4099.621434541249
 30
0.0
 40
4.000000000001649
  0
CIRCLE
  5
274
330
1F
100
AcDbEntity
  8
L 025-[1_5]
100
AcDbCircle
 10
-51006.22971426531
 20
-6852.615086884999
 30
0.0
 40
4.000000000001649
  0
CIRCLE
  5
275
330
1F
100
AcDbEntity
  8
L 025-[1_5]
100
AcDbCircle
 10
-50435.32737051531
 20
-6852.619481416249
 30
0.0
 40
4.000000000001649
  0
TEXT
  5
276
102
{ACAD_XDICTIONARY
360
277
102
}
330
1F
100
AcDbEntity
  8
Text-[1_1]
100
AcDbText
 10
-53978.6901550293
 20
-4076.94091796875
 30
0.0
 40
60.0
  1
Schürze max. Höhe 1500  mm / Länge unbegrenzt
 11
-53978.6901550293
 21
-4016.94091796875
 31
0.0
100
AcDbText
 73
     3
1001
AcadAnnotative
1000
AnnotativeData
1002
{
1070
     1
1070
     1
1002
}
  0
CIRCLE
  5
27B
330
1F
100
AcDbEntity
  8
L 025-[1_25]
100
AcDbCircle
 10
-50967.62890625
 20
-4145.04345703125
 30
0.0
 40
96.43575843652481
  0
CIRCLE
  5
27C
330
1F
100
AcDbEntity
  8
L 025-[1_25]
100
AcDbCircle
 10
-50967.62890625
 20
-4855.390625000001
 30
0.0
 40
96.43575843652481
  0
CIRCLE
  5
27D
330
1F
100
AcDbEntity
  8
L 025-[1_25]
100
AcDbCircle
 10
-50967.62890625
 20
-6814.893066406251
 30
0.0
 40
96.43575843652481
  0
CIRCLE
  5
27E
330
1F
100
AcDbEntity
  8
L 025-[1_25]
100
AcDbCircle
 10
-54526.28125
 20
-7437.091796875001
 30
0.0
 40
96.43575843652481
  0
CIRCLE
  5
27F
330
1F
100
AcDbEntity
  8
L 025-[1_25]
100
AcDbCircle
 10
-53529.65234375
 20
-7440.895019531251
 30
0.0
 40
96.43575843652481
  0
DIMENSION
  5
280
102
{ACAD_XDICTIONARY
360
281
102
}
330
1F
100
AcDbEntity
  8
Bemassung-[1_5]
100
AcDbDimension
280
     0
  2
*D22
 10
-54612.9453125
 20
-9036.06689453125
 30
0.0
 11
-54612.9453125
 21
-8994.31689453125
 31
0.0
 70
   160
 71
     5
 42
83.5
 73
     0
 74
     0
 75
     0
 51
-90.00000000000001
  3
Standard
100
AcDbAlignedDimension
 13
-54570.94906616211
 23
-8952.56689453125
 33
0.0
 14
-54578.94906616211
 24
-9036.06689453125
 34
0.0
 50
-89.99999999999999
100
AcDbRotatedDimension
1001
AcadAnnotative
1000
AnnotativeData
1002
{
1070
     1
1070
     1
1002
}
  0
DIMENSION
  5
291
102
{ACAD_XDICTIONARY
360
292
102
}
330
1F
100
AcDbEntity
  8
Bemassung-[1_5]
100
AcDbDimension
280
     0
  2
*D23
 10
-54578.94906616211
 20
-8916.5107421875
 30
0.0
 11
-54539.94906616211
 21
-8916.5107421875
 31
0.0
 70
   160
 71
     5
 42
78.0
 73
     0
 74
     0
 75
     0
  3
Standard
100
AcDbAlignedDimension
 13
-54500.94906616211
 23
-8952.56689453125
 33
0.0
 14
-54578.94906616211
 24
-8952.56640625
 34
0.0
 50
180.0
100
AcDbRotatedDimension
1001
AcadAnnotative
1000
AnnotativeData
1002
{
1070
     1
1070
     1
1002
}
  0
DIMENSION
  5
2A2
102
{ACAD_XDICTIONARY
360
2A3
102
}
330
1F
100
AcDbEntity
  8
Bemassung-[1_5]
100
AcDbDimension
280
     0
  2
*D24
 10
-54643.94906616211
 20
-9738.1279296875
 30
0.0
 11
-54571.94906616211
 21
-9738.1279296875
 31
0.0
 70
   160
 71
     5
 42
144.0
 73
     0
 74
     0
 75
     0
  3
Standard
100
AcDbAlignedDimension
 13
-54499.94906616211
 23
-9799.02099609375
 33
0.0
 14
-54643.94906616211
 24
-9799.02099609375
 34
0.0
 50
180.0
100
AcDbRotatedDimension
1001
AcadAnnotative
1000
AnnotativeData
1002
{
1070
     1
1070
     1
1002
}
  0
DIMENSION
  5
2B3
102
{ACAD_XDICTIONARY
360
2B4
102
}
330
1F
100
AcDbEntity
  8
Bemassung-[1_5]
100
AcDbDimension
280
     0
  2
*D25
 10
-54599.94906616211
 20
-9775.640625
 30
0.0
 11
-54584.94906616211
 21
-9775.640625
 31
0.0
 70
   160
 71
     5
 42
30.0
 73
     0
 74
     0
 75
     0
  3
Standard
100
AcDbAlignedDimension
 13
-54569.94906616211
 23
-9799.02099609375
 33
0.0
 14
-54599.94906616211
 24
-9799.02099609375
 34
0.0
 50
180.0
100
AcDbRotatedDimension
1001
ACAD
1000
DSTYLE
1002
{
1070
    79
1070
     2
1070
   275
1070
     0
1070
   179
1070
     1
1070
    71
1070
     0
1070
    72
1070
     0
1070
   273
1070
     8
1070
     4
1000

1070
   143
1040
1.0
1070
   148
1040
0.0
1070
   274
1070
     1
1070
   170
1070
     0
1070
   144
1040
1.0
1070
   277
1070
     6
1070
    78
1070
     8
1070
    45
1040
0.1
1070
   271
1070
     1
1070
     3
1000
max.<>
1070
   174
1070
     1
1070
   289
1070
     0
1070
    74
1070
     0
1070
    73
1070
     0
1070
   280
1070
     0
1070
   279
1070
     0
1070
   147
1040
1.0
1070
   145
1040
1.0
1070
    77
1070
     1
1070
   146
1040
0.6
1070
   140
1040
3.0
1070
   172
1070
     1
1070
    76
1070
     0
1070
    75
1070
     0
1070
    44
1040
1.5
1070
    42
1040
1.5
1070
    43
1040
10.0
1070
   282
1070
     0
1070
   281
1070
     0
1070
    46
1040
1.5
1070
    41
1040
1.5
1070
   142
1040
0.0
1070
   342
1005
8E
1070
   173
1070
     0
1070
   372
1070
    -2
1070
   371
1070
    -2
1070
    40
1040
10.0
1070
   340
1005
7C
1002
}
1001
AcadAnnotative
1000
AnnotativeData
1002
{
1070
     1
1070
     1
1002
}
  0
DIMENSION
  5
2C4
102
{ACAD_XDICTIONARY
360
2C5
102
}
330
1F
100
AcDbEntity
  8
Bemassung-[1_5]
100
AcDbDimension
280
     0
  2
*D26
 10
-54673.39453125
 20
-9799.02099609375
 30
0.0
 11
-54673.39453125
 21
-9855.77099609375
 31
0.0
 70
   160
 71
     5
 42
113.5
 73
     0
 74
     0
 75
     0
 51
-90.0
  3
Standard
100
AcDbAlignedDimension
 13
-54635.94906616209
 23
-9912.52099609375
 33
0.0
 14
-54632.94906616211
 24
-9799.02099609375
 34
0.0
 50
90.0
100
AcDbRotatedDimension
1001
AcadAnnotative
1000
AnnotativeData
1002
{
1070
     1
1070
     1
1002
}
  0
DIMENSION
  5
2D5
102
{ACAD_XDICTIONARY
360
2D6
102
}
330
1F
100
AcDbEntity
  8
Bemassung-[1_5]
100
AcDbDimension
280
     0
  2
*D27
 10
-51031.3203125
 20
-4095.691711366806
 30
0.0
 11
-51031.3203125
 21
-4134.691711366807
 31
0.0
 70
   160
 71
     5
 42
78.00000000000091
 73
     0
 74
     0
 75
     0
 51
-90.0
  3
Standard
100
AcDbAlignedDimension
 13
-51013.36042421467
 23
-4173.691711366807
 33
0.0
 14
-51013.36042421467
 24
-4095.691711366806
 34
0.0
 50
90.0
100
AcDbRotatedDimension
1001
AcadAnnotative
1000
AnnotativeData
1002
{
1070
     1
1070
     1
1002
}
  0
DIMENSION
  5
2E6
102
{ACAD_XDICTIONARY
360
2E7
102
}
330
1F
100
AcDbEntity
  8
Bemassung-[1_5]
100
AcDbDimension
280
     0
  2
*D28
 10
-50968.36042421467
 20
-4095.691711366806
 30
0.0
 11
-50968.36042421467
 21
-4099.691711366806
 31
0.0
 70
   160
 71
     5
 42
8.0
 73
     0
 74
     0
 75
     0
 51
-90.0
  3
Standard
100
AcDbAlignedDimension
 13
-50968.36042421467
 23
-4103.691711366806
 33
0.0
 14
-50968.36042421467
 24
-4095.691711366806
 34
0.0
 50
90.0
100
AcDbRotatedDimension
1001
AcadAnnotative
1000
AnnotativeData
1002
{
1070
     1
1070
     1
1002
}
  0
DIMENSION
  5
2F7
102
{ACAD_XDICTIONARY
360
2F8
102
}
330
1F
100
AcDbEntity
  8
Bemassung-[1_5]
100
AcDbDimension
280
     0
  2
*D29
 10
-51026.12415134579
 20
-4918.691589414445
 30
0.0
 11
-51026.12415134579
 21
-4848.691589414444
 31
0.0
 70
   160
 71
     5
 42
140.0000000000018
 73
     0
 74
     0
 75
     0
 51
-90.00000000000001
  3
Standard
100
AcDbAlignedDimension
 13
-51013.36042421467
 23
-4778.691589414443
 33
0.0
 14
-51013.36042421467
 24
-4918.691589414445
 34
0.0
 50
-89.99999999999999
100
AcDbRotatedDimension
1001
AcadAnnotative
1000
AnnotativeData
1002
{
1070
     1
1070
     1
1002
}
  0
DIMENSION
  5
308
102
{ACAD_XDICTIONARY
360
309
102
}
330
1F
100
AcDbEntity
  8
Bemassung-[1_5]
100
AcDbDimension
280
     0
  2
*D30
 10
-51031.49905976356
 20
-6856.69140625
 30
0.0
 11
-51031.49905976356
 21
-6817.69140625
 31
0.0
 70
   160
 71
     5
 42
78.00000000000091
 73
     0
 74
     0
 75
     0
 51
-90.00000000000001
  3
Standard
100
AcDbAlignedDimension
 13
-51013.36042421467
 23
-6778.691406249999
 33
0.0
 14
-51013.36042421467
 24
-6856.69140625
 34
0.0
 50
-89.99999999999999
100
AcDbRotatedDimension
1001
AcadAnnotative
1000
AnnotativeData
1002
{
1070
     1
1070
     1
1002
}
  0
DIMENSION
  5
319
102
{ACAD_XDICTIONARY
360
31A
102
}
330
1F
100
AcDbEntity
  8
Bemassung-[1_5]
100
AcDbDimension
280
     0
  2
*D31
 10
-50866.47265625
 20
-6856.69140625
 30
0.0
 11
-50866.47265625
 21
-6841.19140625
 31
0.0
 70
   160
 71
     5
 42
31.0
 73
     0
 74
     0
 75
     0
 51
-90.00000000000001
  3
Standard
100
AcDbAlignedDimension
 13
-50900.86042421467
 23
-6825.69140625
 33
0.0
 14
-50900.86042421467
 24
-6856.69140625
 34
0.0
 50
-89.99999999999999
100
AcDbRotatedDimension
1001
AcadAnnotative
1000
AnnotativeData
1002
{
1070
     1
1070
     1
1002
}
  0
DIMENSION
  5
32A
102
{ACAD_XDICTIONARY
360
32B
102
}
330
1F
100
AcDbEntity
  8
Bemassung-[1_5]
100
AcDbDimension
280
     0
  2
*D32
 10
-50973.74609375
 20
-6856.69140625
 30
0.0
 11
-50973.74609375
 21
-6852.69140625
 31
0.0
 70
   160
 71
     5
 42
8.0
 73
     0
 74
     0
 75
     0
 51
-90.00000000000001
  3
Standard
100
AcDbAlignedDimension
 13
-50968.36042421467
 23
-6848.69140625
 33
0.0
 14
-50968.36042421467
 24
-6856.69140625
 34
0.0
 50
-89.99999999999999
100
AcDbRotatedDimension
1001
AcadAnnotative
1000
AnnotativeData
1002
{
1070
     1
1070
     1
1002
}
  0
DIMENSION
  5
33B
102
{ACAD_XDICTIONARY
360
33C
102
}
330
1F
100
AcDbEntity
  8
Bemassung-[1_5]
100
AcDbDimension
280
     0
  2
*D33
 10
-49040.62109375
 20
-7134.553176247118
 30
0.0
 11
-49040.62109375
 21
-6893.9423828125
 31
0.0
 70
   160
  1
Max <> mm
 71
     5
 42
300.0012207030632
 73
     0
 74
     0
 75
     0
 51
-90.00000000000001
  3
Standard
100
AcDbAlignedDimension
 13
-49009.88911073811
 23
-6834.551955544055
 33
0.0
 14
-49009.88911073811
 24
-7134.553176247118
 34
0.0
 50
-89.99999999999999
100
AcDbRotatedDimension
1001
ACAD
1000
DSTYLE
1002
{
1070
    79
1070
     2
1070
   275
1070
     0
1070
   179
1070
     1
1070
    71
1070
     0
1070
    72
1070
     0
1070
   273
1070
     8
1070
     4
1000

1070
   143
1040
1.0
1070
   148
1040
0.0
1070
   274
1070
     1
1070
   170
1070
     0
1070
   144
1040
1.0
1070
   277
1070
     6
1070
    78
1070
     8
1070
    45
1040
0.1
1070
   271
1070
     1
1070
     3
1000

1070
   174
1070
     1
1070
   289
1070
     0
1070
    74
1070
     0
1070
    73
1070
     0
1070
   280
1070
     3
1070
   279
1070
     2
1070
   147
1040
1.0
1070
   145
1040
1.0
1070
    77
1070
     1
1070
   146
1040
0.6
1070
   140
1040
3.0
1070
   172
1070
     1
1070
    76
1070
     0
1070
    75
1070
     0
1070
    44
1040
1.5
1070
    42
1040
1.5
1070
    43
1040
10.0
1070
   282
1070
     0
1070
   281
1070
     0
1070
    46
1040
1.5
1070
    41
1040
1.5
1070
   142
1040
0.0
1070
   342
1005
8E
1070
   173
1070
     0
1070
   372
1070
    -2
1070
   371
1070
    -2
1070
    40
1040
10.0
1070
   340
1005
7C
1002
}
1001
AcadAnnotative
1000
AnnotativeData
1002
{
1070
     1
1070
     1
1002
}
1001
Pointline21
1002
{
1000
txt
1000
[$Dim] mm
1000
txt2
1000

1000
pre
1000
Max 
1000
suf
1000

1002
}
  0
DIMENSION
  5
34D
102
{ACAD_XDICTIONARY
360
34E
102
}
330
1F
100
AcDbEntity
  8
Bemassung-[1_5]
100
AcDbDimension
280
     0
  2
*D34
 10
-49070.29296875
 20
-4103.691711366806
 30
0.0
 11
-49070.29296875
 21
-4042.171142578125
 31
0.0
 70
   160
  1
Max1500 mm mm
 71
     5
 42
504.9992064217104
 73
     0
 74
     0
 75
     0
 51
-90.00000000000001
  3
Standard
100
AcDbAlignedDimension
 13
-49011.38883762964
 23
-3598.692504945096
 33
0.0
 14
-49011.38883762964
 24
-4103.691711366806
 34
0.0
 50
-89.99999999999999
100
AcDbRotatedDimension
1001
ACAD
1000
DSTYLE
1002
{
1070
    79
1070
     2
1070
   275
1070
     0
1070
   179
1070
     1
1070
    71
1070
     0
1070
    72
1070
     0
1070
   273
1070
     8
1070
     4
1000

1070
   143
1040
1.0
1070
   148
1040
0.0
1070
   274
1070
     1
1070
   170
1070
     0
1070
   144
1040
1.0
1070
   277
1070
     6
1070
    78
1070
     8
1070
    45
1040
0.1
1070
   271
1070
     1
1070
     3
1000

1070
   174
1070
     1
1070
   289
1070
     0
1070
    74
1070
     0
1070
    73
1070
     0
1070
   280
1070
     3
1070
   279
1070
     2
1070
   147
1040
1.0
1070
   145
1040
1.0
1070
    77
1070
     1
1070
   146
1040
0.6
1070
   140
1040
3.0
1070
   172
1070
     1
1070
    76
1070
     0
1070
    75
1070
     0
1070
    44
1040
1.5
1070
    42
1040
1.5
1070
    43
1040
10.0
1070
   282
1070
     0
1070
   281
1070
     0
1070
    46
1040
1.5
1070
    41
1040
1.5
1070
   142
1040
0.0
1070
   342
1005
8E
1070
   173
1070
     0
1070
   372
1070
    -2
1070
   371
1070
    -2
1070
    40
1040
10.0
1070
   340
1005
7C
1002
}
1001
AcadAnnotative
1000
AnnotativeData
1002
{
1070
     1
1070
     1
1002
}
1001
Pointline21
1002
{
1000
txt
1000
[1500] mm
1000
txt2
1000

1000
pre
1000
Max
1000
suf
1000

1002
}
  0
TEXT
  5
35E
102
{ACAD_XDICTIONARY
360
35F
102
}
330
1F
100
AcDbEntity
  8
Text-[1_1]
100
AcDbText
 10
-51202.3203125
 20
-4003.82861328125
 30
0.0
 40
60.0
  1
B-B
 11
-51202.3203125
 21
-3943.82861328125
 31
0.0
100
AcDbText
 73
     3
1001
AcadAnnotative
1000
AnnotativeData
1002
{
1070
     1
1070
     1
1002
}
  0
TEXT
  5
363
102
{ACAD_XDICTIONARY
360
364
102
}
330
1F
100
AcDbEntity
  8
Text-[1_1]
100
AcDbText
 10
-50604.76611328126
 20
-4003.82861328125
 30
0.0
 40
60.0
  1
C-C
 11
-50604.76611328126
 21
-3943.82861328125
 31
0.0
100
AcDbText
 73
     3
1001
AcadAnnotative
1000
AnnotativeData
1002
{
1070
     1
1070
     1
1002
}
  0
TEXT
  5
368
102
{ACAD_XDICTIONARY
360
369
102
}
330
1F
100
AcDbEntity
  8
Text-[1_1]
100
AcDbText
 10
-54745.84662628174
 20
-7648.08447265625
 30
0.0
 40
60.0
  1
A-A
 11
-54745.84662628174
 21
-7588.08447265625
 31
0.0
100
AcDbText
 73
     3
1001
AcadAnnotative
1000
AnnotativeData
1002
{
1070
     1
1070
     1
1002
}
  0
DIMENSION
  5
36D
102
{ACAD_XDICTIONARY
360
36E
102
}
330
1F
100
AcDbEntity
  8
Bemassung-[1_5]
100
AcDbDimension
280
     0
  2
*D35
 10
-48963.5234375
 20
-4103.691711366805
 30
0.0
 11
-48963.5234375
 21
-4099.691711366806
 31
0.0
 70
   160
 71
     5
 42
8.0
 73
     0
 74
     0
 75
     0
 51
-90.00000000000001
  3
Standard
100
AcDbAlignedDimension
 13
-49011.38883762964
 23
-4095.691711366806
 33
0.0
 14
-49011.38883762964
 24
-4103.691711366806
 34
0.0
 50
-89.99999999999999
100
AcDbRotatedDimension
1001
AcadAnnotative
1000
AnnotativeData
1002
{
1070
     1
1070
     1
1002
}
  0
LWPOLYLINE
  5
37E
330
1F
100
AcDbEntity
  8
L 025-[1_5]
100
AcDbPolyline
 90
        5
 70
     0
 43
0.0
 10
-48937.43618346976
 20
-4095.69171136681
 42
1.137975863152002
 10
-48937.43618346976
 20
-4103.691711366825
 10
-48948.237453001
 20
-4103.691711366826
 10
-48948.23745300101
 20
-4095.691711366811
 10
-48937.43618346976
 20
-4095.69171136681
  0
CIRCLE
  5
37F
330
1F
100
AcDbEntity
  8
L 025-[1_5]
100
AcDbCircle
 10
-49005.64902578876
 20
-4099.771336884999
 30
0.0
 40
4.000000000001649
  0
MTEXT
  5
380
102
{ACAD_XDICTIONARY
360
381
102
}
330
1F
100
AcDbEntity
  8
Text-[1_5]
100
AcDbMText
 10
-46645.3984375
 20
-3439.62841796875
 30
0.0
 40
15.0
 41
866.7698364257812
 46
0.0
 71
     1
 72
     1
  3
{Schacht-Installations-Elektrofront EI30-RF1 Typ E\P\PEin- oder Mehrflügelig/endlos/2 -Stöckig  VKF Nr.  26066 \P\PAusführung:\Pgrundiert zum Streichen, gespritzt nach RAL/NCS\Palle Kunstharze bis 0,9 mm möglich, Kanten in ABS\Palle Furniere bis 0,9 
  1
mm möglich, farblos lackiert, geölt, gebeizt und lackiert\PRahmen innen mit Grundierkunstharz\P\PVerdeckte Band 2D verstellbar, Drehstangenverschluss mit Vierkant, Olive oder Kaba Zylinder\P\P\P}
 73
     1
 44
1.0
1001
AcadAnnotative
1000
AnnotativeData
1002
{
1070
     1
1070
     1
1002
}
  0
HATCH
  5
385
102
{ACAD_XDICTIONARY
360
386
102
}
330
1F
100
AcDbEntity
  8
Schraffur-[1_10]
100
AcDbHatch
 10
0.0
 20
0.0
 30
0.0
210
0.0
220
0.0
230
1.0
  2
INSULATION_100MM
 70
     0
 71
     0
 91
        1
 92
        0
 93
        4
 72
     1
 10
2626.1875
 20
-4106.55908203125
 11
2626.1875
 21
-4098.55908203125
 72
     1
 10
2626.1875
 20
-4098.55908203125
 11
2611.1875
 21
-4098.55908203125
 72
     1
 10
2611.1875
 20
-4098.55908203125
 11
2611.1875
 21
-4106.55908203125
 72
     1
 10
2611.1875
 20
-4106.55908203125
 11
2626.1875
 21
-4106.55908203125
 97
        0
 75
     0
 76
     2
 52
0.0
 41
1.0
 77
     0
 78
     3
 53
90.0
 43
0.0
 44
0.0
 45
-48.0
 46
0.0000000000000029
 79
     0
 53
90.0
 43
16.0
 44
8.0
 45
-48.0
 46
0.0000000000000029
 79
     2
 49
16.0
 49
-16.0
 53
90.0
 43
32.0
 44
8.0
 45
-48.0
 46
0.0000000000000029
 79
     2
 49
16.0
 49
-16.0
 98
        0
1001
ACAD
1010
0.0
1020
0.0
1030
0.0
1001
AcadAnnotative
1000
AnnotativeData
1002
{
1070
     1
1070
     1
1002
}
  0
HATCH
  5
38A
330
1F
100
AcDbEntity
  8
Schraffur
100
AcDbHatch
 10
0.0
 20
0.0
 30
0.0
210
0.0
220
0.0
230
1.0
  2
HOLZWERKSTOFFPLATTEN
 70
     0
 71
     1
 91
        1
 92
        1
 93
        4
 72
     1
 10
-54570.94906616211
 20
-9044.06689453125
 11
-54548.94906616211
 21
-9044.06689453125
 72
     1
 10
-54548.94906616211
 20
-9044.06689453125
 11
-54548.94906616211
 21
-8952.56689453125
 72
     1
 10
-54548.94906616211
 20
-8952.56689453125
 11
-54570.94906616211
 21
-8952.56689453125
 72
     1
 10
-54570.94906616211
 20
-8952.56689453125
 11
-54570.94906616211
 21
-9044.06689453125
 97
        1
330
E6
 75
     0
 76
     2
 52
90.0
 41
10.0
 77
     0
 78
     1
 53
180.0
 43
0.0
 44
0.0
 45
-0.0000000000000012
 46
-10.0
 79
     0
 98
        0
1001
ACAD
1010
0.0
1020
0.0
1030
0.0
  0
HATCH
  5
38B
330
1F
100
AcDbEntity
  8
Schraffur
100
AcDbHatch
 10
0.0
 20
0.0
 30
0.0
210
0.0
220
0.0
230
1.0
  2
HOLZWERKSTOFFPLATTEN
 70
     0
 71
     1
 91
        1
 92
        1
 93
        4
 72
     1
 10
-54569.94906616211
 20
-9890.52099609375
 11
-54547.94906616211
 21
-9890.52099609375
 72
     1
 10
-54547.94906616211
 20
-9890.52099609375
 11
-54547.94906616211
 21
-9799.02099609375
 72
     1
 10
-54547.94906616211
 20
-9799.02099609375
 11
-54569.94906616211
 21
-9799.02099609375
 72
     1
 10
-54569.94906616211
 20
-9799.02099609375
 11
-54569.94906616211
 21
-9890.52099609375
 97
        1
330
207
 75
     0
 76
     2
 52
90.0
 41
10.0
 77
     0
 78
     1
 53
180.0
 43
0.0
 44
0.0
 45
-0.0000000000000012
 46
-10.0
 79
     0
 98
        0
1001
ACAD
1010
0.0
1020
0.0
1030
0.0
  0
HATCH
  5
38C
330
1F
100
AcDbEntity
  8
Schraffur
100
AcDbHatch
 10
0.0
 20
0.0
 30
0.0
210
0.0
220
0.0
230
1.0
  2
HOLZWERKSTOFFPLATTEN
 70
     0
 71
     1
 91
        1
 92
        1
 93
        4
 72
     1
 10
-54621.94906616211
 20
-9890.52099609375
 11
-54599.94906616211
 21
-9890.52099609375
 72
     1
 10
-54599.94906616211
 20
-9890.52099609375
 11
-54599.94906616211
 21
-9799.02099609375
 72
     1
 10
-54599.94906616211
 20
-9799.02099609375
 11
-54621.94906616211
 21
-9799.02099609375
 72
     1
 10
-54621.94906616211
 20
-9799.02099609375
 11
-54621.94906616211
 21
-9890.52099609375
 97
        1
330
E8
 75
     0
 76
     2
 52
90.0
 41
10.0
 77
     0
 78
     1
 53
180.0
 43
0.0
 44
0.0
 45
-0.0000000000000012
 46
-10.0
 79
     0
 98
        0
1001
ACAD
1010
0.0
1020
0.0
1030
0.0
  0
HATCH
  5
38D
330
1F
100
AcDbEntity
  8
Schraffur
100
AcDbHatch
 10
0.0
 20
0.0
 30
0.0
210
0.0
220
0.0
230
1.0
  2
HOLZWERKSTOFFPLATTEN
 70
     0
 71
     1
 91
        1
 92
        1
 93
        4
 72
     1
 10
-54643.94906616211
 20
-9890.52099609375
 11
-54621.94906616211
 21
-9890.52099609375
 72
     1
 10
-54621.94906616211
 20
-9890.52099609375
 11
-54621.94906616211
 21
-9799.02099609375
 72
     1
 10
-54621.94906616211
 20
-9799.02099609375
 11
-54643.94906616211
 21
-9799.02099609375
 72
     1
 10
-54643.94906616211
 20
-9799.02099609375
 11
-54643.94906616211
 21
-9890.52099609375
 97
        1
330
20D
 75
     0
 76
     2
 52
90.0
 41
10.0
 77
     0
 78
     1
 53
180.0
 43
0.0
 44
0.0
 45
-0.0000000000000012
 46
-10.0
 79
     0
 98
        0
1001
ACAD
1010
0.0
1020
0.0
1030
0.0
  0
HATCH
  5
38E
330
1F
100
AcDbEntity
  8
Schraffur
100
AcDbHatch
 10
0.0
 20
0.0
 30
0.0
210
0.0
220
0.0
230
1.0
  2
HOLZWERKSTOFFPLATTEN
 70
     0
 71
     1
 91
        1
 92
        1
 93
        4
 72
     1
 10
-54548.94906616211
 20
-9066.06689453125
 11
-54548.94906616211
 21
-9044.06689453125
 72
     1
 10
-54548.94906616211
 20
-9044.06689453125
 11
-54639.94906616211
 21
-9044.06689453125
 72
     1
 10
-54639.94906616211
 20
-9044.06689453125
 11
-54639.94906616211
 21
-9066.06689453125
 72
     1
 10
-54639.94906616211
 20
-9066.06689453125
 11
-54548.94906616211
 21
-9066.06689453125
 97
        1
330
E7
 75
     0
 76
     2
 52
0.0
 41
10.0
 77
     0
 78
     1
 53
90.0
 43
0.0
 44
0.0
 45
-10.0
 46
0.0000000000000006
 79
     0
 98
        0
1001
ACAD
1010
0.0
1020
0.0
1030
0.0
  0
HATCH
  5
38F
330
1F
100
AcDbEntity
  8
Schraffur
100
AcDbHatch
 10
0.0
 20
0.0
 30
0.0
210
0.0
220
0.0
230
1.0
  2
HOLZWERKSTOFFPLATTEN
 70
     0
 71
     1
 91
        1
 92
        1
 93
        4
 72
     1
 10
-54547.94906616211
 20
-9912.52099609375
 11
-54547.94906616211
 21
-9890.52099609375
 72
     1
 10
-54547.94906616211
 20
-9890.52099609375
 11
-54635.94906616209
 21
-9890.52099609375
 72
     1
 10
-54635.94906616209
 20
-9890.52099609375
 11
-54635.94906616209
 21
-9912.52099609375
 72
     1
 10
-54635.94906616209
 20
-9912.52099609375
 11
-54547.94906616211
 21
-9912.52099609375
 97
        1
330
208
 75
     0
 76
     2
 52
0.0
 41
10.0
 77
     0
 78
     1
 53
90.0
 43
0.0
 44
0.0
 45
-10.0
 46
0.0000000000000006
 79
     0
 98
        0
1001
ACAD
1010
0.0
1020
0.0
1030
0.0
  0
HATCH
  5
391
330
1F
100
AcDbEntity
  8
Schraffur
100
AcDbHatch
 10
0.0
 20
0.0
 30
0.0
210
0.0
220
0.0
230
1.0
  2
HOLZWERKSTOFFPLATTEN
 70
     0
 71
     1
 91
        1
 92
        1
 93
        8
 72
     1
 10
-49011.38883762964
 20
-4095.691711366806
 11
-48936.38911073812
 21
-4095.691711366806
 72
     1
 10
-48936.38911073812
 20
-4095.691711366806
 11
-48936.38911073812
 21
-4125.690849278751
 72
     1
 10
-48936.38911073812
 20
-4125.690849278751
 11
-48913.88911073812
 21
-4125.690849278751
 72
     1
 10
-48913.88911073812
 20
-4125.690849278751
 11
-48913.88911073812
 21
-3629.691711366864
 72
     1
 10
-48913.88911073812
 20
-3629.691711366864
 11
-48937.38911073812
 21
-3629.691711366864
 72
     1
 10
-48937.38911073812
 20
-3629.691711366864
 11
-48937.38911073812
 21
-3598.692504945096
 72
     1
 10
-48937.38911073812
 20
-3598.692504945096
 11
-49011.38883762964
 21
-3598.692504945096
 72
     1
 10
-49011.38883762964
 20
-3598.692504945096
 11
-49011.38883762964
 21
-4095.691711366806
 97
        1
330
21E
 75
     0
 76
     2
 52
90.0
 41
25.0
 77
     0
 78
     1
 53
180.0
 43
0.0
 44
0.0
 45
-0.0000000000000031
 46
-25.0
 79
     0
 98
        0
1001
ACAD
1010
0.0
1020
0.0
1030
0.0
  0
HATCH
  5
392
330
1F
100
AcDbEntity
  8
Schraffur
100
AcDbHatch
 10
0.0
 20
0.0
 30
0.0
210
0.0
220
0.0
230
1.0
  2
HOLZWERKSTOFFPLATTEN
 70
     0
 71
     1
 91
        1
 92
        1
 93
        6
 72
     1
 10
-49009.88911073811
 20
-6834.551955544055
 11
-49009.88911073811
 21
-7134.553176247118
 72
     1
 10
-49009.88911073811
 20
-7134.553176247118
 11
-48913.88911073811
 21
-7134.553176247118
 72
     1
 10
-48913.88911073811
 20
-7134.553176247118
 11
-48913.88911073811
 21
-6812.551955544051
 72
     1
 10
-48913.88911073811
 20
-6812.551955544051
 11
-48935.89287194137
 21
-6812.551955544051
 72
     1
 10
-48935.89287194137
 20
-6812.551955544051
 11
-48935.89287194137
 21
-6834.551955544055
 72
     1
 10
-48935.89287194137
 20
-6834.551955544055
 11
-49009.88911073811
 21
-6834.551955544055
 97
        1
330
21D
 75
     0
 76
     2
 52
90.0
 41
25.0
 77
     0
 78
     1
 53
180.0
 43
0.0
 44
0.0
 45
-0.0000000000000031
 46
-25.0
 79
     0
 98
        0
1001
ACAD
1010
0.0
1020
0.0
1030
0.0
  0
HATCH
  5
393
330
1F
100
AcDbEntity
  8
Schraffur
100
AcDbHatch
 10
0.0
 20
0.0
 30
0.0
210
0.0
220
0.0
230
1.0
  2
HOLZWERKSTOFFPLATTEN
 70
     0
 71
     1
 91
        1
 92
        1
 93
        8
 72
     1
 10
-50900.86042421467
 20
-4844.691589414443
 11
-50921.86042421467
 21
-4844.691589414443
 72
     1
 10
-50921.86042421467
 20
-4844.691589414443
 11
-50921.86042421467
 21
-4790.691391682882
 72
     1
 10
-50921.86042421467
 20
-4790.691391682882
 11
-50946.86042421467
 21
-4790.691391682882
 72
     1
 10
-50946.86042421467
 20
-4790.691391682882
 11
-50946.86042421467
 21
-4162.691420817116
 72
     1
 10
-50946.86042421467
 20
-4162.691420817116
 11
-50921.86042421467
 21
-4162.691420817116
 72
     1
 10
-50921.86042421467
 20
-4162.691420817116
 11
-50921.86042421467
 21
-4112.552260660866
 72
     1
 10
-50921.86042421467
 20
-4112.552260660866
 11
-50900.86042421467
 21
-4112.552260660866
 72
     1
 10
-50900.86042421467
 20
-4112.552260660866
 11
-50900.86042421467
 21
-4844.691589414443
 97
        1
330
EC
 75
     0
 76
     2
 52
90.0
 41
25.0
 77
     0
 78
     1
 53
180.0
 43
0.0
 44
0.0
 45
-0.0000000000000031
 46
-25.0
 79
     0
 98
        0
1001
ACAD
1010
0.0
1020
0.0
1030
0.0
  0
HATCH
  5
394
330
1F
100
AcDbEntity
  8
Schraffur
100
AcDbHatch
 10
0.0
 20
0.0
 30
0.0
210
0.0
220
0.0
230
1.0
  2
HOLZWERKSTOFFPLATTEN
 70
     0
 71
     1
 91
        1
 92
        1
 93
        8
 72
     1
 10
-50351.97761171467
 20
-4112.552260660866
 11
-50351.97761171467
 21
-4162.691420817116
 72
     1
 10
-50351.97761171467
 20
-4162.691420817116
 11
-50376.97761171467
 21
-4162.691420817116
 72
     1
 10
-50376.97761171467
 20
-4162.691420817116
 11
-50376.97761171467
 21
-6790.69140625
 72
     1
 10
-50376.97761171467
 20
-6790.69140625
 11
-50351.97761171467
 21
-6790.69140625
 72
     1
 10
-50351.97761171467
 20
-6790.69140625
 11
-50351.97761171467
 21
-6825.69140625
 72
     1
 10
-50351.97761171467
 20
-6825.69140625
 11
-50330.97761171467
 21
-6825.69140625
 72
     1
 10
-50330.97761171467
 20
-6825.69140625
 11
-50330.97761171467
 21
-4112.552260660866
 72
     1
 10
-50330.97761171467
 20
-4112.552260660866
 11
-50351.97761171467
 21
-4112.552260660866
 97
        1
330
1CE
 75
     0
 76
     2
 52
90.0
 41
25.0
 77
     0
 78
     1
 53
180.0
 43
0.0
 44
0.0
 45
-0.0000000000000031
 46
-25.0
 79
     0
 98
        0
1001
ACAD
1010
0.0
1020
0.0
1030
0.0
  0
HATCH
  5
395
330
1F
100
AcDbEntity
  8
Schraffur
100
AcDbHatch
 10
0.0
 20
0.0
 30
0.0
210
0.0
220
0.0
230
1.0
  2
HOLZWERKSTOFFPLATTEN
 70
     0
 71
     1
 91
        1
 92
        1
 93
        8
 72
     1
 10
-50921.86042421467
 20
-4852.691589414443
 11
-50921.86042421467
 21
-4906.691589414443
 72
     1
 10
-50921.86042421467
 20
-4906.691589414443
 11
-50946.86042421467
 21
-4906.691589414443
 72
     1
 10
-50946.86042421467
 20
-4906.691589414443
 11
-50946.86042421467
 21
-6790.69140625
 72
     1
 10
-50946.86042421467
 20
-6790.69140625
 11
-50921.86042421467
 21
-6790.69140625
 72
     1
 10
-50921.86042421467
 20
-6790.69140625
 11
-50921.86042421467
 21
-6825.69140625
 72
     1
 10
-50921.86042421467
 20
-6825.69140625
 11
-50900.86042421467
 21
-6825.69140625
 72
     1
 10
-50900.86042421467
 20
-6825.69140625
 11
-50900.86042421467
 21
-4852.691589414443
 72
     1
 10
-50900.86042421467
 20
-4852.691589414443
 11
-50921.86042421467
 21
-4852.691589414443
 97
        1
330
129
 75
     0
 76
     2
 52
90.0
 41
25.0
 77
     0
 78
     1
 53
180.0
 43
0.0
 44
0.0
 45
-0.0000000000000031
 46
-25.0
 79
     0
 98
        0
1001
ACAD
1010
0.0
1020
0.0
1030
0.0
  0
HATCH
  5
396
330
1F
100
AcDbEntity
  8
Schraffur
100
AcDbHatch
 10
0.0
 20
0.0
 30
0.0
210
0.0
220
0.0
230
1.0
  2
HOLZWERKSTOFFPLATTEN
 70
     0
 71
     1
 91
        1
 92
        1
 93
        8
 72
     1
 10
-53543.44906616211
 20
-7482.806640625
 11
-53543.44906616211
 21
-7455.306640625001
 72
     1
 10
-53543.44906616211
 20
-7455.306640625001
 11
-53569.44906616211
 21
-7455.306640624999
 72
     1
 10
-53569.44906616211
 20
-7455.306640624999
 11
-53569.44906616211
 21
-7392.806640625
 72
     1
 10
-53569.44906616211
 20
-7392.806640625
 11
-53495.44906616211
 21
-7392.806640625
 72
     1
 10
-53495.44906616211
 20
-7392.806640625
 11
-53495.44906616211
 21
-7455.306640624999
 72
     1
 10
-53495.44906616211
 20
-7455.306640624999
 11
-53521.44906616211
 21
-7455.306640625001
 72
     1
 10
-53521.44906616211
 20
-7455.306640625001
 11
-53521.44906616211
 21
-7482.806640625
 72
     1
 10
-53521.44906616211
 20
-7482.806640625
 11
-53543.44906616211
 21
-7482.806640625
 97
        1
330
E9
 75
     0
 76
     2
 52
90.0
 41
25.0
 77
     0
 78
     1
 53
180.0
 43
0.0
 44
0.0
 45
-0.0000000000000031
 46
-25.0
 79
     0
 98
        0
1001
ACAD
1010
0.0
1020
0.0
1030
0.0
  0
HATCH
  5
397
330
1F
100
AcDbEntity
  8
Schraffur
100
AcDbHatch
 10
0.0
 20
0.0
 30
0.0
210
0.0
220
0.0
230
1.0
  2
HOLZWERKSTOFFPLATTEN
 70
     0
 71
     1
 91
        1
 92
        1
 93
        6
 72
     1
 10
-54546.94906616211
 20
-7482.806640625
 11
-54546.94906616211
 21
-7392.806640625
 72
     1
 10
-54546.94906616211
 20
-7392.806640625
 11
-54501.94906616211
 21
-7392.806640625
 72
     1
 10
-54501.94906616211
 20
-7392.806640625
 11
-54501.94906616211
 21
-7455.306640625
 72
     1
 10
-54501.94906616211
 20
-7455.306640625
 11
-54527.94906616211
 21
-7455.306640625001
 72
     1
 10
-54527.94906616211
 20
-7455.306640625001
 11
-54527.94906616211
 21
-7482.806640625
 72
     1
 10
-54527.94906616211
 20
-7482.806640625
 11
-54546.94906616211
 21
-7482.806640625
 97
        1
330
EA
 75
     0
 76
     2
 52
90.0
 41
25.0
 77
     0
 78
     1
 53
180.0
 43
0.0
 44
0.0
 45
-0.0000000000000031
 46
-25.0
 79
     0
 98
        0
1001
ACAD
1010
0.0
1020
0.0
1030
0.0
  0
HATCH
  5
398
330
1F
100
AcDbEntity
  8
Schraffur
100
AcDbHatch
 10
0.0
 20
0.0
 30
0.0
210
0.0
220
0.0
230
1.0
  2
HOLZWERKSTOFFPLATTEN
 70
     0
 71
     1
 91
        1
 92
        1
 93
        6
 72
     1
 10
-54548.94906616211
 20
-9042.56689453125
 11
-54548.94906616211
 21
-8952.56689453125
 72
     1
 10
-54548.94906616211
 20
-8952.56689453125
 11
-54500.94906616211
 21
-8952.56689453125
 72
     1
 10
-54500.94906616211
 20
-8952.56689453125
 11
-54500.94906616211
 21
-9015.06689453125
 72
     1
 10
-54500.94906616211
 20
-9015.06689453125
 11
-54526.94906616211
 21
-9015.06689453125
 72
     1
 10
-54526.94906616211
 20
-9015.06689453125
 11
-54526.94906616211
 21
-9042.56689453125
 72
     1
 10
-54526.94906616211
 20
-9042.56689453125
 11
-54548.94906616211
 21
-9042.56689453125
 97
        1
330
205
 75
     0
 76
     2
 52
90.0
 41
25.0
 77
     0
 78
     1
 53
180.0
 43
0.0
 44
0.0
 45
-0.0000000000000031
 46
-25.0
 79
     0
 98
        0
1001
ACAD
1010
0.0
1020
0.0
1030
0.0
  0
HATCH
  5
399
330
1F
100
AcDbEntity
  8
Schraffur
100
AcDbHatch
 10
0.0
 20
0.0
 30
0.0
210
0.0
220
0.0
230
1.0
  2
HOLZWERKSTOFFPLATTEN
 70
     0
 71
     1
 91
        1
 92
        1
 93
        6
 72
     1
 10
-54547.94906616211
 20
-9889.02099609375
 11
-54547.94906616211
 21
-9799.02099609375
 72
     1
 10
-54547.94906616211
 20
-9799.02099609375
 11
-54499.94906616211
 21
-9799.02099609375
 72
     1
 10
-54499.94906616211
 20
-9799.02099609375
 11
-54499.94906616211
 21
-9861.52099609375
 72
     1
 10
-54499.94906616211
 20
-9861.52099609375
 11
-54525.94906616211
 21
-9861.52099609375
 72
     1
 10
-54525.94906616211
 20
-9861.52099609375
 11
-54525.94906616211
 21
-9889.02099609375
 72
     1
 10
-54525.94906616211
 20
-9889.02099609375
 11
-54547.94906616211
 21
-9889.02099609375
 97
        1
330
20B
 75
     0
 76
     2
 52
90.0
 41
25.0
 77
     0
 78
     1
 53
180.0
 43
0.0
 44
0.0
 45
-0.0000000000000031
 46
-25.0
 79
     0
 98
        0
1001
ACAD
1010
0.0
1020
0.0
1030
0.0
  0
HATCH
  5
39A
330
1F
100
AcDbEntity
  8
Schraffur
100
AcDbHatch
 10
0.0
 20
0.0
 30
0.0
210
0.0
220
0.0
230
1.0
  2
HOLZWERKSTOFFPLATTEN
 70
     0
 71
     1
 91
        1
 92
        1
 93
        5
 72
     1
 10
-54419.62124633789
 20
-9865.52099609375
 11
-54518.94906616211
 21
-9865.52099609375
 72
     1
 10
-54518.94906616211
 20
-9865.52099609375
 11
-54518.94906616211
 21
-9890.52099609375
 72
     1
 10
-54518.94906616211
 20
-9890.52099609375
 11
-54539.94906616211
 21
-9890.52099609375
 72
     1
 10
-54539.94906616211
 20
-9890.52099609375
 11
-54539.94906616211
 21
-9912.52099609375
 72
     1
 10
-54539.94906616211
 20
-9912.52099609375
 11
-54421.78515625
 21
-9912.52099609375
 97
        1
330
20C
 75
     0
 76
     2
 52
0.0
 41
25.0
 77
     0
 78
     1
 53
90.0
 43
0.0
 44
0.0
 45
-25.0
 46
0.0000000000000015
 79
     0
 98
        0
1001
ACAD
1010
0.0
1020
0.0
1030
0.0
  0
HATCH
  5
39B
330
1F
100
AcDbEntity
  8
Schraffur
100
AcDbHatch
 10
0.0
 20
0.0
 30
0.0
210
0.0
220
0.0
230
1.0
  2
HOLZWERKSTOFFPLATTEN
 70
     0
 71
     1
 91
        1
 92
        1
 93
        5
 72
     1
 10
-54420.62124633789
 20
-9019.06689453125
 11
-54519.94906616211
 21
-9019.06689453125
 72
     1
 10
-54519.94906616211
 20
-9019.06689453125
 11
-54519.94906616211
 21
-9044.06689453125
 72
     1
 10
-54519.94906616211
 20
-9044.06689453125
 11
-54540.94906616211
 21
-9044.06689453125
 72
     1
 10
-54540.94906616211
 20
-9044.06689453125
 11
-54540.94906616211
 21
-9066.06689453125
 72
     1
 10
-54540.94906616211
 20
-9066.06689453125
 11
-54422.78515625
 21
-9066.06689453125
 97
        1
330
206
 75
     0
 76
     2
 52
0.0
 41
25.0
 77
     0
 78
     1
 53
90.0
 43
0.0
 44
0.0
 45
-25.0
 46
0.0000000000000015
 79
     0
 98
        0
1001
ACAD
1010
0.0
1020
0.0
1030
0.0
  0
HATCH
  5
39C
330
1F
100
AcDbEntity
  8
Schraffur
100
AcDbHatch
 10
0.0
 20
0.0
 30
0.0
210
0.0
220
0.0
230
1.0
  2
HOLZWERKSTOFFPLATTEN
 70
     0
 71
     1
 91
        1
 92
        1
 93
        6
 72
     1
 10
-50443.47761171467
 20
-4173.691711366806
 11
-50443.47761171467
 21
-4103.691711366805
 72
     1
 10
-50443.47761171467
 20
-4103.691711366805
 11
-50353.47761171467
 21
-4103.691711366805
 72
     1
 10
-50353.47761171467
 20
-4103.691711366805
 11
-50353.47761171467
 21
-4147.691711366805
 72
     1
 10
-50353.47761171467
 20
-4147.691711366805
 11
-50380.97761171467
 21
-4147.691711366805
 72
     1
 10
-50380.97761171467
 20
-4147.691711366805
 11
-50380.97761171467
 21
-4173.691711366806
 72
     1
 10
-50380.97761171467
 20
-4173.691711366806
 11
-50443.47761171467
 21
-4173.691711366806
 97
        1
330
202
 75
     0
 76
     2
 52
0.0
 41
25.0
 77
     0
 78
     1
 53
90.0
 43
0.0
 44
0.0
 45
-25.0
 46
0.0000000000000015
 79
     0
 98
        0
1001
ACAD
1010
0.0
1020
0.0
1030
0.0
  0
HATCH
  5
39D
330
1F
100
AcDbEntity
  8
Schraffur
100
AcDbHatch
 10
0.0
 20
0.0
 30
0.0
210
0.0
220
0.0
230
1.0
  2
HOLZWERKSTOFFPLATTEN
 70
     0
 71
     1
 91
        1
 92
        1
 93
        6
 72
     1
 10
-51013.36042421467
 20
-4173.691711366806
 11
-51013.36042421467
 21
-4103.691711366805
 72
     1
 10
-51013.36042421467
 20
-4103.691711366805
 11
-50923.36042421467
 21
-4103.691711366805
 72
     1
 10
-50923.36042421467
 20
-4103.691711366805
 11
-50923.36042421467
 21
-4147.691711366805
 72
     1
 10
-50923.36042421467
 20
-4147.691711366805
 11
-50950.86042421467
 21
-4147.691711366805
 72
     1
 10
-50950.86042421467
 20
-4147.691711366805
 11
-50950.86042421467
 21
-4173.691711366806
 72
     1
 10
-50950.86042421467
 20
-4173.691711366806
 11
-51013.36042421467
 21
-4173.691711366806
 97
        1
330
1CC
 75
     0
 76
     2
 52
0.0
 41
25.0
 77
     0
 78
     1
 53
90.0
 43
0.0
 44
0.0
 45
-25.0
 46
0.0000000000000015
 79
     0
 98
        0
1001
ACAD
1010
0.0
1020
0.0
1030
0.0
  0
HATCH
  5
39E
330
1F
100
AcDbEntity
  8
Schraffur
100
AcDbHatch
 10
0.0
 20
0.0
 30
0.0
210
0.0
220
0.0
230
1.0
  2
HOLZWERKSTOFFPLATTEN
 70
     0
 71
     1
 91
        1
 92
        1
 93
        6
 72
     1
 10
-51013.36042421467
 20
-4918.691589414444
 11
-51013.36042421467
 21
-4848.691589414443
 72
     1
 10
-51013.36042421467
 20
-4848.691589414443
 11
-50923.36042421467
 21
-4848.691589414443
 72
     1
 10
-50923.36042421467
 20
-4848.691589414443
 11
-50923.36042421467
 21
-4892.691589414443
 72
     1
 10
-50923.36042421467
 20
-4892.691589414443
 11
-50950.86042421467
 21
-4892.691589414443
 72
     1
 10
-50950.86042421467
 20
-4892.691589414443
 11
-50950.86042421467
 21
-4918.691589414444
 72
     1
 10
-50950.86042421467
 20
-4918.691589414444
 11
-51013.36042421467
 21
-4918.691589414444
 97
        1
330
1CA
 75
     0
 76
     2
 52
0.0
 41
25.0
 77
     0
 78
     1
 53
90.0
 43
0.0
 44
0.0
 45
-25.0
 46
0.0000000000000015
 79
     0
 98
        0
1001
ACAD
1010
0.0
1020
0.0
1030
0.0
  0
HATCH
  5
39F
330
1F
100
AcDbEntity
  8
Schraffur
100
AcDbHatch
 10
0.0
 20
0.0
 30
0.0
210
0.0
220
0.0
230
1.0
  2
HOLZWERKSTOFFPLATTEN
 70
     0
 71
     1
 91
        1
 92
        1
 93
        6
 72
     1
 10
-51013.36042421467
 20
-4778.691589414444
 11
-51013.36042421467
 21
-4848.691589414445
 72
     1
 10
-51013.36042421467
 20
-4848.691589414445
 11
-50923.36042421467
 21
-4848.691589414445
 72
     1
 10
-50923.36042421467
 20
-4848.691589414445
 11
-50923.36042421467
 21
-4804.691589414445
 72
     1
 10
-50923.36042421467
 20
-4804.691589414445
 11
-50950.86042421467
 21
-4804.691589414445
 72
     1
 10
-50950.86042421467
 20
-4804.691589414445
 11
-50950.86042421467
 21
-4778.691589414444
 72
     1
 10
-50950.86042421467
 20
-4778.691589414444
 11
-51013.36042421467
 21
-4778.691589414444
 97
        1
330
1CB
 75
     0
 76
     2
 52
0.0
 41
25.0
 77
     0
 78
     1
 53
90.0
 43
0.0
 44
0.0
 45
-25.0
 46
0.0000000000000015
 79
     0
 98
        0
1001
ACAD
1010
0.0
1020
0.0
1030
0.0
  0
HATCH
  5
3A0
330
1F
100
AcDbEntity
  8
Schraffur
100
AcDbHatch
 10
0.0
 20
0.0
 30
0.0
210
0.0
220
0.0
230
1.0
  2
HOLZWERKSTOFFPLATTEN
 70
     0
 71
     1
 91
        1
 92
        1
 93
        6
 72
     1
 10
-50443.47761171467
 20
-6778.691406249999
 11
-50443.47761171467
 21
-6848.69140625
 72
     1
 10
-50443.47761171467
 20
-6848.69140625
 11
-50353.47761171467
 21
-6848.69140625
 72
     1
 10
-50353.47761171467
 20
-6848.69140625
 11
-50353.47761171467
 21
-6804.69140625
 72
     1
 10
-50353.47761171467
 20
-6804.69140625
 11
-50380.97761171467
 21
-6804.69140625
 72
     1
 10
-50380.97761171467
 20
-6804.69140625
 11
-50380.97761171467
 21
-6778.691406249999
 72
     1
 10
-50380.97761171467
 20
-6778.691406249999
 11
-50443.47761171467
 21
-6778.691406249999
 97
        1
330
1CD
 75
     0
 76
     2
 52
0.0
 41
25.0
 77
     0
 78
     1
 53
90.0
 43
0.0
 44
0.0
 45
-25.0
 46
0.0000000000000015
 79
     0
 98
        0
1001
ACAD
1010
0.0
1020
0.0
1030
0.0
  0
HATCH
  5
3A1
330
1F
100
AcDbEntity
  8
Schraffur
100
AcDbHatch
 10
0.0
 20
0.0
 30
0.0
210
0.0
220
0.0
230
1.0
  2
HOLZWERKSTOFFPLATTEN
 70
     0
 71
     1
 91
        1
 92
        1
 93
        6
 72
     1
 10
-51013.36042421467
 20
-6778.691406249999
 11
-51013.36042421467
 21
-6848.69140625
 72
     1
 10
-51013.36042421467
 20
-6848.69140625
 11
-50923.36042421467
 21
-6848.69140625
 72
     1
 10
-50923.36042421467
 20
-6848.69140625
 11
-50923.36042421467
 21
-6804.69140625
 72
     1
 10
-50923.36042421467
 20
-6804.69140625
 11
-50950.86042421467
 21
-6804.69140625
 72
     1
 10
-50950.86042421467
 20
-6804.69140625
 11
-50950.86042421467
 21
-6778.691406249999
 72
     1
 10
-50950.86042421467
 20
-6778.691406249999
 11
-51013.36042421467
 21
-6778.691406249999
 97
        1
330
EB
 75
     0
 76
     2
 52
0.0
 41
25.0
 77
     0
 78
     1
 53
90.0
 43
0.0
 44
0.0
 45
-25.0
 46
0.0000000000000015
 79
     0
 98
        0
1001
ACAD
1010
0.0
1020
0.0
1030
0.0
  0
HATCH
  5
3A2
330
1F
100
AcDbEntity
  8
Schraffur
100
AcDbHatch
 10
0.0
 20
0.0
 30
0.0
210
0.0
220
0.0
230
1.0
  2
HOLZWERKSTOFFPLATTEN
 70
     0
 71
     1
 91
        1
 92
        1
 93
        6
 72
     1
 10
-48937.38911073812
 20
-6834.551955544055
 11
-49027.38911073812
 21
-6834.551955544055
 72
     1
 10
-49027.38911073812
 20
-6834.551955544055
 11
-49027.38911073812
 21
-6764.551955544055
 72
     1
 10
-49027.38911073812
 20
-6764.551955544055
 11
-48964.88911073812
 21
-6764.551955544055
 72
     1
 10
-48964.88911073812
 20
-6764.551955544055
 11
-48964.88911073812
 21
-6790.551955544055
 72
     1
 10
-48964.88911073812
 20
-6790.551955544055
 11
-48937.38911073812
 21
-6790.551955544055
 72
     1
 10
-48937.38911073812
 20
-6790.551955544055
 11
-48937.38911073812
 21
-6834.551955544055
 97
        1
330
227
 75
     0
 76
     2
 52
0.0
 41
25.0
 77
     0
 78
     1
 53
90.0
 43
0.0
 44
0.0
 45
-25.0
 46
0.0000000000000015
 79
     0
 98
        0
1001
ACAD
1010
0.0
1020
0.0
1030
0.0
  0
HATCH
  5
3A3
330
1F
100
AcDbEntity
  8
Schraffur
100
AcDbHatch
 10
0.0
 20
0.0
 30
0.0
210
0.0
220
0.0
230
1.0
  2
HOLZWERKSTOFFPLATTEN
 70
     0
 71
     1
 91
        1
 92
        1
 93
        6
 72
     1
 10
-49478.578125
 20
-6812.551955544059
 11
-49568.578125
 21
-6812.551955544059
 72
     1
 10
-49568.578125
 20
-6812.551955544059
 11
-49568.578125
 21
-6764.551955544059
 72
     1
 10
-49568.578125
 20
-6764.551955544059
 11
-49506.078125
 21
-6764.551955544059
 72
     1
 10
-49506.078125
 20
-6764.551955544059
 11
-49506.078125
 21
-6790.551955544059
 72
     1
 10
-49506.078125
 20
-6790.551955544059
 11
-49478.578125
 21
-6790.551955544059
 72
     1
 10
-49478.578125
 20
-6790.551955544059
 11
-49478.578125
 21
-6812.551955544059
 97
        1
330
21B
 75
     0
 76
     2
 52
0.0
 41
25.0
 77
     0
 78
     1
 53
90.0
 43
0.0
 44
0.0
 45
-25.0
 46
0.0000000000000015
 79
     0
 98
        0
1001
ACAD
1010
0.0
1020
0.0
1030
0.0
  0
HATCH
  5
3A4
330
1F
100
AcDbEntity
  8
Schraffur
100
AcDbHatch
 10
0.0
 20
0.0
 30
0.0
210
0.0
220
0.0
230
1.0
  2
HOLZWERKSTOFFPLATTEN
 70
     0
 71
     1
 91
        1
 92
        1
 93
        6
 72
     1
 10
-49478.578125
 20
-4125.691711366806
 11
-49568.578125
 21
-4125.691711366806
 72
     1
 10
-49568.578125
 20
-4125.691711366806
 11
-49568.578125
 21
-4173.691711366806
 72
     1
 10
-49568.578125
 20
-4173.691711366806
 11
-49506.078125
 21
-4173.691711366806
 72
     1
 10
-49506.078125
 20
-4173.691711366806
 11
-49506.078125
 21
-4147.691711366806
 72
     1
 10
-49506.078125
 20
-4147.691711366806
 11
-49478.578125
 21
-4147.691711366806
 72
     1
 10
-49478.578125
 20
-4147.691711366806
 11
-49478.578125
 21
-4125.691711366806
 97
        1
330
215
 75
     0
 76
     2
 52
0.0
 41
25.0
 77
     0
 78
     1
 53
90.0
 43
0.0
 44
0.0
 45
-25.0
 46
0.0000000000000015
 79
     0
 98
        0
1001
ACAD
1010
0.0
1020
0.0
1030
0.0
  0
HATCH
  5
3A5
330
1F
100
AcDbEntity
  8
Schraffur
100
AcDbHatch
 10
0.0
 20
0.0
 30
0.0
210
0.0
220
0.0
230
1.0
  2
HOLZWERKSTOFFPLATTEN
 70
     0
 71
     1
 91
        1
 92
        1
 93
        6
 72
     1
 10
-48937.38911073812
 20
-4103.691711366806
 11
-49027.38911073812
 21
-4103.691711366806
 72
     1
 10
-49027.38911073812
 20
-4103.691711366806
 11
-49027.38911073812
 21
-4173.691711366806
 72
     1
 10
-49027.38911073812
 20
-4173.691711366806
 11
-48964.88911073812
 21
-4173.691711366806
 72
     1
 10
-48964.88911073812
 20
-4173.691711366806
 11
-48964.88911073812
 21
-4147.691711366806
 72
     1
 10
-48964.88911073812
 20
-4147.691711366806
 11
-48937.38911073812
 21
-4147.691711366806
 72
     1
 10
-48937.38911073812
 20
-4147.691711366806
 11
-48937.38911073812
 21
-4103.691711366806
 97
        1
330
223
 75
     0
 76
     2
 52
0.0
 41
25.0
 77
     0
 78
     1
 53
90.0
 43
0.0
 44
0.0
 45
-25.0
 46
0.0000000000000015
 79
     0
 98
        0
1001
ACAD
1010
0.0
1020
0.0
1030
0.0
  0
HATCH
  5
3A6
330
1F
100
AcDbEntity
  8
Schraffur
100
AcDbHatch
 10
0.0
 20
0.0
 30
0.0
210
0.0
220
0.0
230
1.0
  2
HOLZWERKSTOFFPLATTEN
 70
     0
 71
     1
 91
        1
 92
        1
 93
        8
 72
     1
 10
-53528.44906616211
 20
-7484.306640625
 11
-53528.44906616211
 21
-7506.306640625
 72
     1
 10
-53528.44906616211
 20
-7506.306640625
 11
-52561.94906616211
 21
-7506.306640625
 72
     1
 10
-52561.94906616211
 20
-7506.306640625
 11
-52561.94906616211
 21
-7484.306639625051
 72
     1
 10
-52561.94906616211
 20
-7484.306639625051
 11
-52533.94906616205
 21
-7484.306639625051
 72
     1
 10
-52533.94906616205
 20
-7484.306639625051
 11
-52533.94906616205
 21
-7459.306639625051
 72
     1
 10
-52533.94906616205
 20
-7459.306639625051
 11
-53507.94906616211
 21
-7459.306639625051
 72
     1
 10
-53507.94906616211
 20
-7459.306639625051
 11
-53507.94906616211
 21
-7484.306640625
 72
     1
 10
-53507.94906616211
 20
-7484.306640625
 11
-53528.44906616211
 21
-7484.306640625
 97
        1
330
1C8
 75
     0
 76
     2
 52
0.0
 41
25.0
 77
     0
 78
     1
 53
90.0
 43
0.0
 44
0.0
 45
-25.0
 46
0.0000000000000015
 79
     0
 98
        0
1001
ACAD
1010
0.0
1020
0.0
1030
0.0
  0
HATCH
  5
3A7
330
1F
100
AcDbEntity
  8
Schraffur
100
AcDbHatch
 10
0.0
 20
0.0
 30
0.0
210
0.0
220
0.0
230
1.0
  2
HOLZWERKSTOFFPLATTEN
 70
     0
 71
     1
 91
        1
 92
        1
 93
        5
 72
     1
 10
-54421.62124633789
 20
-7459.306640625
 11
-54520.94906616211
 21
-7459.306640625
 72
     1
 10
-54520.94906616211
 20
-7459.306640625
 11
-54520.94906616211
 21
-7484.306640625
 72
     1
 10
-54520.94906616211
 20
-7484.306640625
 11
-54541.94906616211
 21
-7484.306640625
 72
     1
 10
-54541.94906616211
 20
-7484.306640625
 11
-54541.94906616211
 21
-7506.306640625
 72
     1
 10
-54541.94906616211
 20
-7506.306640625
 11
-54423.78515625
 21
-7506.306640625
 97
        1
330
1A3
 75
     0
 76
     2
 52
0.0
 41
25.0
 77
     0
 78
     1
 53
90.0
 43
0.0
 44
0.0
 45
-25.0
 46
0.0000000000000015
 79
     0
 98
        0
1001
ACAD
1010
0.0
1020
0.0
1030
0.0
  0
HATCH
  5
3A8
330
1F
100
AcDbEntity
  8
Schraffur
100
AcDbHatch
 10
0.0
 20
0.0
 30
0.0
210
0.0
220
0.0
230
1.0
  2
HOLZWERKSTOFFPLATTEN
 70
     0
 71
     1
 91
        1
 92
        1
 93
        5
 72
     1
 10
-54421.62124633789
 20
-7459.306640625
 11
-53557.44906616211
 21
-7459.306640625
 72
     1
 10
-53557.44906616211
 20
-7459.306640625
 11
-53557.44906616211
 21
-7484.306640625
 72
     1
 10
-53557.44906616211
 20
-7484.306640625
 11
-53536.44906616211
 21
-7484.306640625
 72
     1
 10
-53536.44906616211
 20
-7484.306640625
 11
-53536.44906616211
 21
-7506.306640625
 72
     1
 10
-53536.44906616211
 20
-7506.306640625
 11
-54423.78515625
 21
-7506.306640625
 97
        1
330
1A4
 75
     0
 76
     2
 52
0.0
 41
25.0
 77
     0
 78
     1
 53
90.0
 43
0.0
 44
0.0
 45
-25.0
 46
0.0000000000000015
 79
     0
 98
        0
1001
ACAD
1010
0.0
1020
0.0
1030
0.0
  0
HATCH
  5
3A9
330
1F
100
AcDbEntity
  8
Schraffur
100
AcDbHatch
 10
0.0
 20
0.0
 30
0.0
210
0.0
220
0.0
230
1.0
  2
HOLZWERKSTOFFPLATTEN
 70
     0
 71
     1
 91
        1
 92
        1
 93
        6
 72
     1
 10
-51627.94906616211
 20
-7392.806640625
 11
-51627.94906616211
 21
-7455.306640624999
 72
     1
 10
-51627.94906616211
 20
-7455.306640624999
 11
-51601.94906616211
 21
-7455.306640625001
 72
     1
 10
-51601.94906616211
 20
-7455.306640625001
 11
-51601.94906616211
 21
-7482.806640625
 72
     1
 10
-51601.94906616211
 20
-7482.806640625
 11
-51582.94906616211
 21
-7482.806640625
 72
     1
 10
-51582.94906616211
 20
-7482.806640625
 11
-51582.94906616211
 21
-7392.806640625
 72
     1
 10
-51582.94906616211
 20
-7392.806640625
 11
-51627.94873046875
 21
-7392.806640625
 97
        1
330
1B6
 75
     0
 76
     2
 52
90.0
 41
25.0
 77
     0
 78
     1
 53
180.0
 43
0.0
 44
0.0
 45
-0.0000000000000031
 46
-25.0
 79
     0
 98
        0
1001
ACAD
1010
0.0
1020
0.0
1030
0.0
  0
HATCH
  5
3AA
330
1F
100
AcDbEntity
  8
Schraffur
100
AcDbHatch
 10
0.0
 20
0.0
 30
0.0
210
0.0
220
0.0
230
1.0
  2
HOLZWERKSTOFFPLATTEN
 70
     0
 71
     1
 91
        1
 92
        1
 93
        4
 72
     1
 10
-49477.078125
 20
-4103.691711366806
 11
-49477.078125
 21
-4125.691711366806
 72
     1
 10
-49477.078125
 20
-4125.691711366806
 11
-49568.578125
 21
-4125.691711366806
 72
     1
 10
-49568.578125
 20
-4125.691711366806
 11
-49568.578125
 21
-4103.691711366806
 72
     1
 10
-49568.578125
 20
-4103.691711366806
 11
-49477.078125
 21
-4103.691711366806
 97
        1
330
211
 75
     0
 76
     2
 52
0.0
 41
10.0
 77
     0
 78
     1
 53
90.0
 43
0.0
 44
0.0
 45
-10.0
 46
0.0000000000000006
 79
     0
 98
        0
1001
ACAD
1010
0.0
1020
0.0
1030
0.0
  0
HATCH
  5
3AB
330
1F
100
AcDbEntity
  8
Schraffur
100
AcDbHatch
 10
0.0
 20
0.0
 30
0.0
210
0.0
220
0.0
230
1.0
  2
HOLZWERKSTOFFPLATTEN
 70
     0
 71
     1
 91
        1
 92
        1
 93
        4
 72
     1
 10
-49455.078125
 20
-6812.551955544059
 11
-49477.078125
 21
-6812.551955544059
 72
     1
 10
-49477.078125
 20
-6812.551955544059
 11
-49477.078125
 21
-6903.551955544059
 72
     1
 10
-49477.078125
 20
-6903.551955544059
 11
-49455.078125
 21
-6903.551955544059
 72
     1
 10
-49455.078125
 20
-6903.551955544059
 11
-49455.078125
 21
-6812.551955544059
 97
        1
330
218
 75
     0
 76
     2
 52
90.0
 41
10.0
 77
     0
 78
     1
 53
180.0
 43
0.0
 44
0.0
 45
-0.0000000000000012
 46
-10.0
 79
     0
 98
        0
1001
ACAD
1010
0.0
1020
0.0
1030
0.0
  0
HATCH
  5
3AC
330
1F
100
AcDbEntity
  8
Schraffur
100
AcDbHatch
 10
0.0
 20
0.0
 30
0.0
210
0.0
220
0.0
230
1.0
  2
HOLZWERKSTOFFPLATTEN
 70
     0
 71
     1
 91
        1
 92
        1
 93
        4
 72
     1
 10
-49455.078125
 20
-4125.691711366806
 11
-49477.078125
 21
-4125.691711366806
 72
     1
 10
-49477.078125
 20
-4125.691711366806
 11
-49477.078125
 21
-4034.691711366806
 72
     1
 10
-49477.078125
 20
-4034.691711366806
 11
-49455.078125
 21
-4034.691711366806
 72
     1
 10
-49455.078125
 20
-4034.691711366806
 11
-49455.078125
 21
-4125.691711366806
 97
        1
330
212
 75
     0
 76
     2
 52
90.0
 41
10.0
 77
     0
 78
     1
 53
180.0
 43
0.0
 44
0.0
 45
-0.0000000000000012
 46
-10.0
 79
     0
 98
        0
1001
ACAD
1010
0.0
1020
0.0
1030
0.0
  0
HATCH
  5
3AD
330
1F
100
AcDbEntity
  8
Schraffur
100
AcDbHatch
 10
0.0
 20
0.0
 30
0.0
210
0.0
220
0.0
230
1.0
  2
HOLZWERKSTOFFPLATTEN
 70
     0
 71
     1
 91
        1
 92
        1
 93
        5
 72
     1
 10
-49502.07812499999
 20
-4254.019531191025
 11
-49502.078125
 21
-4154.691711366806
 72
     1
 10
-49502.078125
 20
-4154.691711366806
 11
-49477.078125
 21
-4154.691711366806
 72
     1
 10
-49477.078125
 20
-4154.691711366806
 11
-49477.078125
 21
-4133.691711366806
 72
     1
 10
-49477.078125
 20
-4133.691711366806
 11
-49455.078125
 21
-4133.691711366806
 72
     1
 10
-49455.078125
 20
-4133.691711366806
 11
-49455.07812499999
 21
-4251.855621278915
 97
        1
330
216
 75
     0
 76
     2
 52
90.0
 41
25.0
 77
     0
 78
     1
 53
180.0
 43
0.0
 44
0.0
 45
-0.0000000000000031
 46
-25.0
 79
     0
 98
        0
1001
ACAD
1010
0.0
1020
0.0
1030
0.0
  0
HATCH
  5
3AE
330
1F
100
AcDbEntity
  8
Schraffur
100
AcDbHatch
 10
0.0
 20
0.0
 30
0.0
210
0.0
220
0.0
230
1.0
  2
HOLZWERKSTOFFPLATTEN
 70
     0
 71
     1
 91
        1
 92
        1
 93
        4
 72
     1
 10
-49477.078125
 20
-6834.551955544059
 11
-49477.078125
 21
-6812.551955544059
 72
     1
 10
-49477.078125
 20
-6812.551955544059
 11
-49568.578125
 21
-6812.551955544059
 72
     1
 10
-49568.578125
 20
-6812.551955544059
 11
-49568.578125
 21
-6834.551955544059
 72
     1
 10
-49568.578125
 20
-6834.551955544059
 11
-49477.078125
 21
-6834.551955544059
 97
        1
330
217
 75
     0
 76
     2
 52
0.0
 41
10.0
 77
     0
 78
     1
 53
90.0
 43
0.0
 44
0.0
 45
-10.0
 46
0.0000000000000006
 79
     0
 98
        0
1001
ACAD
1010
0.0
1020
0.0
1030
0.0
  0
HATCH
  5
3AF
330
1F
100
AcDbEntity
  8
Schraffur
100
AcDbHatch
 10
0.0
 20
0.0
 30
0.0
210
0.0
220
0.0
230
1.0
  2
HOLZWERKSTOFFPLATTEN
 70
     0
 71
     1
 91
        1
 92
        1
 93
        5
 72
     1
 10
-49502.07812499999
 20
-6684.22413571984
 11
-49502.078125
 21
-6783.551955544059
 72
     1
 10
-49502.078125
 20
-6783.551955544059
 11
-49477.078125
 21
-6783.551955544059
 72
     1
 10
-49477.078125
 20
-6783.551955544059
 11
-49477.07812499999
 21
-6804.551955544059
 72
     1
 10
-49477.07812499999
 20
-6804.551955544059
 11
-49455.07812499999
 21
-6804.551955544059
 72
     1
 10
-49455.07812499999
 20
-6804.551955544059
 11
-49455.07812499999
 21
-6686.388045631949
 97
        1
330
21C
 75
     0
 76
     2
 52
90.0
 41
25.0
 77
     0
 78
     1
 53
180.0
 43
0.0
 44
0.0
 45
-0.0000000000000031
 46
-25.0
 79
     0
 98
        0
1001
ACAD
1010
0.0
1020
0.0
1030
0.0
  0
HATCH
  5
3B0
330
1F
100
AcDbEntity
  8
Schraffur
100
AcDbHatch
 10
0.0
 20
0.0
 30
0.0
210
0.0
220
0.0
230
1.0
  2
HOLZWERKSTOFFPLATTEN
 70
     0
 71
     1
 91
        1
 92
        1
 93
        5
 72
     1
 10
-48960.88911073811
 20
-4254.019531191025
 11
-48960.88911073812
 21
-4161.691711366806
 72
     1
 10
-48960.88911073812
 20
-4161.691711366806
 11
-48935.88911073812
 21
-4161.691711366806
 72
     1
 10
-48935.88911073812
 20
-4161.691711366806
 11
-48935.88911073812
 21
-4133.691711366806
 72
     1
 10
-48935.88911073812
 20
-4133.691711366806
 11
-48913.88911073812
 21
-4133.691711366806
 72
     1
 10
-48913.88911073812
 20
-4133.691711366806
 11
-48913.88911073811
 21
-4251.855621278915
 97
        1
330
224
 75
     0
 76
     2
 52
90.0
 41
25.0
 77
     0
 78
     1
 53
180.0
 43
0.0
 44
0.0
 45
-0.0000000000000031
 46
-25.0
 79
     0
 98
        0
1001
ACAD
1010
0.0
1020
0.0
1030
0.0
  0
HATCH
  5
3B1
330
1F
100
AcDbEntity
  8
Schraffur
100
AcDbHatch
 10
0.0
 20
0.0
 30
0.0
210
0.0
220
0.0
230
1.0
  2
HOLZWERKSTOFFPLATTEN
 70
     0
 71
     1
 91
        1
 92
        1
 93
        5
 72
     1
 10
-48960.88911073811
 20
-6684.224135719836
 11
-48960.88911073812
 21
-6776.551955544055
 72
     1
 10
-48960.88911073812
 20
-6776.551955544055
 11
-48935.88911073812
 21
-6776.551955544055
 72
     1
 10
-48935.88911073812
 20
-6776.551955544055
 11
-48935.88911073811
 21
-6804.551955544055
 72
     1
 10
-48935.88911073811
 20
-6804.551955544055
 11
-48913.88911073811
 21
-6804.551955544055
 72
     1
 10
-48913.88911073811
 20
-6804.551955544055
 11
-48913.88911073811
 21
-6686.388045631946
 97
        1
330
228
 75
     0
 76
     2
 52
90.0
 41
25.0
 77
     0
 78
     1
 53
180.0
 43
0.0
 44
0.0
 45
-0.0000000000000031
 46
-25.0
 79
     0
 98
        0
1001
ACAD
1010
0.0
1020
0.0
1030
0.0
  0
HATCH
  5
3B2
330
1F
100
AcDbEntity
  8
Schraffur
100
AcDbHatch
 10
0.0
 20
0.0
 30
0.0
210
0.0
220
0.0
230
1.0
  2
HOLZWERKSTOFFPLATTEN
 70
     0
 71
     0
 91
        1
 92
        0
 93
        8
 72
     1
 10
-52554.94906616211
 20
-7484.306639625051
 11
-52554.94906616211
 21
-7506.306640625
 72
     1
 10
-52554.94906616211
 20
-7506.306640625
 11
-51587.94906616211
 21
-7506.306640625
 72
     1
 10
-51587.94906616211
 20
-7506.306640625
 11
-51587.94906616211
 21
-7484.306640625
 72
     1
 10
-51587.94906616211
 20
-7484.306640625
 11
-51615.94906616211
 21
-7484.306640625
 72
     1
 10
-51615.94906616211
 20
-7484.306640625
 11
-51615.94906616211
 21
-7459.306640625
 72
     1
 10
-51615.94906616211
 20
-7459.306640625
 11
-52529.9312897065
 21
-7459.306640625
 72
     1
 10
-52529.9312897065
 20
-7459.306640625
 11
-52529.9312897065
 21
-7484.306640625
 72
     1
 10
-52529.9312897065
 20
-7484.306640625
 11
-52554.94906616211
 21
-7484.306639625051
 97
        0
 75
     0
 76
     2
 52
0.0
 41
25.0
 77
     0
 78
     1
 53
90.0
 43
0.0
 44
0.0
 45
-25.0
 46
0.0000000000000015
 79
     0
 98
        0
1001
ACAD
1010
0.0
1020
0.0
1030
0.0
  0
VIEWPORT
  5
405
330
401
100
AcDbEntity
 67
     1
  8
0
100
AcDbViewport
 10
128.5
 20
97.5
 30
0.0
 40
314.226
 41
222.18
 68
     1
 69
     1
 12
128.5
 22
97.5
 13
0.0
 23
0.0
 14
10.0
 24
10.0
 15
10.0
 25
10.0
 16
0.0
 26
0.0
 36
1.0
 17
0.0
 27
0.0
 37
0.0
 42
50.0
 43
0.0
 44
0.0
 45
222.18
 50
0.0
 51
0.0
 72
   100
 90
   557152
  1

281
     0
 71
     1
 74
     0
110
0.0
120
0.0
130
0.0
111
1.0
121
0.0
131
0.0
112
0.0
122
1.0
132
0.0
 79
     0
146
0.0
170
     0
 61
     5
292
     1
282
     1
141
0.0
142
0.0
 63
   256
361
406
  0
LWPOLYLINE
  5
407
330
401
100
AcDbEntity
 67
     1
  8
Planrahmen
100
AcDbPolyline
 90
        4
 70
     1
 43
0.0
 10
12.0
 20
12.0
 10
198.0
 20
12.0
 10
198.0
 20
285.0000000000001
 10
12.0
 20
285.0000000000001
  0
LINE
  5
408
330
401
100
AcDbEntity
 67
     1
  8
L 2
100
AcDbLine
 10
191.0599744413722
 20
51.80629730224698
 30
0.0
 11
198.0
 21
51.80629730224698
 31
0.0
  0
VIEWPORT
  5
409
330
401
100
AcDbEntity
 67
     1
  8
Ansichtsfenster
100
AcDbViewport
 10
77.34657573699951
 20
204.4857864379883
 30
0.0
 40
125.853479385376
 41
129.0943450927734
 68
     2
 69
     2
 12
0.0
 22
0.0
 13
0.0
 23
0.0
 14
0.5
 24
0.5
 15
0.0
 25
0.0
 16
0.0
 26
0.0
 36
1000.0
 17
-53057.25390625
 27
-5483.017578125
 37
0.0
 42
50.0
 43
0.0
 44
0.0
 45
3227.358642578125
 50
0.0
 51
0.0
 72
   100
331
88
331
80
331
7F
 90
   557152
  1

281
     0
 71
     1
 74
     0
110
14.41983604431152
120
139.9386138916016
130
0.0
111
1.0
121
0.0
131
0.0
112
0.0
122
1.0
132
0.0
 79
     0
146
0.0
170
     0
 61
     5
292
     1
282
     1
141
0.0
142
0.0
 63
   256
361
40A
  0
VIEWPORT
  5
40B
330
401
100
AcDbEntity
 67
     1
  8
Ansichtsfenster
100
AcDbViewport
 10
79.06935548782343
 20
112.7707633972168
 30
0.0
 40
127.620108604431
 41
26.02649688720703
 68
     3
 69
     3
 12
0.0
 22
0.0
 13
0.0
 23
0.0
 14
0.5
 24
0.5
 15
0.0
 25
0.0
 16
0.0
 26
0.0
 36
1000.0
 17
-53076.3203125
 27
-7439.15771484375
 37
0.0
 42
50.0
 43
0.0
 44
0.0
 45
650.6624659403675
 50
0.0
 51
0.0
 72
   100
331
88
331
8C
331
80
 90
   557152
  1

281
     0
 71
     1
 74
     0
110
15.25930118560791
120
99.75751495361328
130
0.0
111
1.0
121
0.0
131
0.0
112
0.0
122
1.0
132
0.0
 79
     0
146
0.0
170
     0
 61
     5
292
     1
282
     1
141
0.0
142
0.0
 63
   256
361
40C
  0
VIEWPORT
  5
40D
330
401
100
AcDbEntity
 67
     1
  8
Ansichtsfenster
100
AcDbViewport
 10
176.6923599243164
 20
206.1141204833984
 30
0.0
 40
42.61528015136719
 41
126.3131408691406
 68
     4
 69
     4
 12
0.0
 22
0.0
 13
0.0
 23
0.0
 14
0.5
 24
0.5
 15
0.0
 25
0.0
 16
0.0
 26
0.0
 36
1000.0
 17
-50729.46484375
 27
-5427.583984375
 37
0.0
 42
50.0
 43
0.0
 44
0.0
 45
3157.828857421875
 50
0.0
 51
0.0
 72
   100
331
88
 90
   557152
  1

281
     0
 71
     1
 74
     0
110
155.3847198486328
120
142.9575500488281
130
0.0
111
1.0
121
0.0
131
0.0
112
0.0
122
1.0
132
0.0
 79
     0
146
0.0
170
     0
 61
     5
292
     1
282
     1
141
0.0
142
0.0
 63
   256
361
40E
  0
VIEWPORT
  5
40F
330
401
100
AcDbEntity
 67
     1
  8
Ansichtsfenster
100
AcDbViewport
 10
164.0558547973633
 20
119.8010215759277
 30
0.0
 40
35.06391906738281
 41
33.23661041259766
 68
     5
 69
     5
 12
0.0
 22
0.0
 13
0.0
 23
0.0
 14
0.5
 24
0.5
 15
0.0
 25
0.0
 16
0.0
 26
0.0
 36
1000.0
 17
-51647.78515625
 27
-7455.33154296875
 37
0.0
 42
50.0
 43
0.0
 44
0.0
 45
166.1830520629883
 50
0.0
 51
0.0
 72
   100
331
7F
331
80
331
81
331
88
331
8C
 90
   557152
  1

281
     0
 71
     1
 74
     0
110
146.5238952636719
120
103.1827163696289
130
0.0
111
1.0
121
0.0
131
0.0
112
0.0
122
1.0
132
0.0
 79
     0
146
0.0
170
     0
 61
     5
292
     1
282
     1
141
0.0
142
0.0
 63
   256
361
410
  0
ENDSEC
  0
SECTION
  2
OBJECTS
  0
DICTIONARY
  5
C
330
0
100
AcDbDictionary
281
     1
  3
ACAD_DETAILVIEWSTYLE
350
415
  3
ACAD_GROUP
350
D
  3
ACAD_LAYOUT
350
1A
  3
ACAD_MATERIAL
350
43
  3
ACAD_MLEADERSTYLE
350
414
  3
ACAD_MLINESTYLE
350
17
  3
ACAD_PLOTSETTINGS
350
19
  3
ACAD_PLOTSTYLENAME
350
E
  3
ACAD_SCALELIST
350
47
  3
ACAD_SECTIONVIEWSTYLE
350
416
  3
ACAD_TABLESTYLE
350
413
  3
ACAD_VISUALSTYLE
350
2A
  3
AcDbVariableDictionary
350
411
  0
SUN
  5
69
330
29
100
AcDbSun
 90
        1
290
     0
 63
     7
421
 16777215
 40
1.0
291
     1
 91
  2455826
 92
 54000000
292
     0
 70
     2
 71
   256
280
     1
  0
SUN
  5
3B8
330
3B7
100
AcDbSun
 90
        1
290
     0
 63
     7
421
 16777215
 40
1.0
291
     1
 91
  2455826
 92
 54000000
292
     0
 70
     2
 71
   256
280
     1
  0
SUN
  5
3BA
330
3B9
100
AcDbSun
 90
        1
290
     0
 63
     7
421
 16777215
 40
1.0
291
     1
 91
  2455826
 92
 54000000
292
     0
 70
     2
 71
   256
280
     1
  0
SUN
  5
3BC
330
3BB
100
AcDbSun
 90
        1
290
     0
 63
     7
421
 16777215
 40
1.0
291
     1
 91
  2455826
 92
 54000000
292
     0
 70
     2
 71
   256
280
     1
  0
SUN
  5
3BE
330
3BD
100
AcDbSun
 90
        1
290
     0
 63
     7
421
 16777215
 40
1.0
291
     1
 91
  2455826
 92
 54000000
292
     0
 70
     2
 71
   256
280
     1
  0
SUN
  5
3C0
330
3BF
100
AcDbSun
 90
        1
290
     0
 63
     7
421
 16777215
 40
1.0
291
     1
 91
  2455826
 92
 54000000
292
     0
 70
     2
 71
   256
280
     1
  0
DICTIONARY
  5
3C8
330
3C5
100
AcDbDictionary
280
     1
281
     1
  3
ASDK_XREC_ANNOTATION_SCALE_INFO
360
3C9
  0
SUN
  5
3C6
330
3C5
100
AcDbSun
 90
        1
290
     0
 63
     7
421
 16777215
 40
1.0
291
     1
 91
  2455826
 92
 54000000
292
     0
 70
     2
 71
   256
280
     1
  0
DICTIONARY
  5
3CA
330
3C7
100
AcDbDictionary
280
     1
281
     1
  3
AcDbContextDataManager
360
3CB
  0
DICTIONARY
  5
3CF
330
3CE
100
AcDbDictionary
280
     1
281
     1
  3
AcDbContextDataManager
360
3D0
  0
DICTIONARY
  5
3D4
330
3D3
100
AcDbDictionary
280
     1
281
     1
  3
AcDbContextDataManager
360
3D5
  0
DICTIONARY
  5
3D9
330
3D8
100
AcDbDictionary
280
     1
281
     1
  3
AcDbContextDataManager
360
3DA
  0
DICTIONARY
  5
3DE
330
3DD
100
AcDbDictionary
280
     1
281
     1
  3
AcDbContextDataManager
360
3DF
  0
DICTIONARY
  5
3E3
330
3E2
100
AcDbDictionary
280
     1
281
     1
  3
AcDbContextDataManager
360
3E4
  0
SUN
  5
3E8
330
3E7
100
AcDbSun
 90
        1
290
     0
 63
     7
421
 16777215
 40
1.0
291
     1
 91
  2455826
 92
 54000000
292
     0
 70
     2
 71
   256
280
     1
  0
SUN
  5
3EA
330
3E9
100
AcDbSun
 90
        1
290
     0
 63
     7
421
 16777215
 40
1.0
291
     1
 91
  2455826
 92
 54000000
292
     0
 70
     2
 71
   256
280
     1
  0
SUN
  5
3EC
330
3EB
100
AcDbSun
 90
        1
290
     0
 63
     7
421
 16777215
 40
1.0
291
     1
 91
  2455826
 92
 54000000
292
     0
 70
     2
 71
   256
280
     1
  0
SUN
  5
3EE
330
3ED
100
AcDbSun
 90
        1
290
     0
 63
     7
421
 16777215
 40
1.0
291
     1
 91
  2455826
 92
 54000000
292
     0
 70
     2
 71
   256
280
     1
  0
SUN
  5
3F0
330
3EF
100
AcDbSun
 90
        1
290
     0
 63
     7
421
 16777215
 40
1.0
291
     1
 91
  2455826
 92
 54000000
292
     0
 70
     2
 71
   256
280
     1
  0
SUN
  5
3F2
330
3F1
100
AcDbSun
 90
        1
290
     0
 63
     7
421
 16777215
 40
1.0
291
     1
 91
  2455826
 92
 54000000
292
     0
 70
     2
 71
   256
280
     1
  0
SUN
  5
3F4
330
3F3
100
AcDbSun
 90
        1
290
     0
 63
     7
421
 16777215
 40
1.0
291
     1
 91
  2455826
 92
 54000000
292
     0
 70
     2
 71
   256
280
     1
  0
SUN
  5
3F6
330
3F5
100
AcDbSun
 90
        1
290
     0
 63
     7
421
 16777215
 40
1.0
291
     1
 91
  2455826
 92
 54000000
292
     0
 70
     2
 71
   256
280
     1
  0
SUN
  5
3F8
330
3F7
100
AcDbSun
 90
        1
290
     0
 63
     7
421
 16777215
 40
1.0
291
     1
 91
  2455826
 92
 54000000
292
     0
 70
     2
 71
   256
280
     1
  0
SUN
  5
3FA
330
3F9
100
AcDbSun
 90
        1
290
     0
 63
     7
421
 16777215
 40
1.0
291
     1
 91
  2455826
 92
 54000000
292
     0
 70
     2
 71
   256
280
     1
  0
SUN
  5
3FC
330
3FB
100
AcDbSun
 90
        1
290
     0
 63
     7
421
 16777215
 40
1.0
291
     1
 91
  2455826
 92
 54000000
292
     0
 70
     2
 71
   256
280
     1
  0
SUN
  5
3FE
330
3FD
100
AcDbSun
 90
        1
290
     0
 63
     7
421
 16777215
 40
1.0
291
     1
 91
  2455826
 92
 54000000
292
     0
 70
     2
 71
   256
280
     1
  0
SUN
  5
400
330
3FF
100
AcDbSun
 90
        1
290
     0
 63
     7
421
 16777215
 40
1.0
291
     1
 91
  2455826
 92
 54000000
292
     0
 70
     2
 71
   256
280
     1
  0
DICTIONARY
  5
EF
330
ED
100
AcDbDictionary
280
     1
281
     1
  3
AcDbContextDataManager
360
F0
  0
DICTIONARY
  5
101
330
100
100
AcDbDictionary
280
     1
281
     1
  3
AcDbContextDataManager
360
102
  0
DICTIONARY
  5
112
330
111
100
AcDbDictionary
280
     1
281
     1
  3
AcDbContextDataManager
360
113
  0
DICTIONARY
  5
12D
330
12B
100
AcDbDictionary
280
     1
281
     1
  3
AcDbContextDataManager
360
12E
  0
DICTIONARY
  5
13E
330
13D
100
AcDbDictionary
280
     1
281
     1
  3
AcDbContextDataManager
360
13F
  0
DICTIONARY
  5
14F
330
14E
100
AcDbDictionary
280
     1
281
     1
  3
AcDbContextDataManager
360
150
  0
DICTIONARY
  5
160
330
15F
100
AcDbDictionary
280
     1
281
     1
  3
AcDbContextDataManager
360
161
  0
DICTIONARY
  5
171
330
170
100
AcDbDictionary
280
     1
281
     1
  3
AcDbContextDataManager
360
172
  0
DICTIONARY
  5
182
330
181
100
AcDbDictionary
280
     1
281
     1
  3
AcDbContextDataManager
360
183
  0
DICTIONARY
  5
193
330
192
100
AcDbDictionary
280
     1
281
     1
  3
AcDbContextDataManager
360
194
  0
DICTIONARY
  5
1A6
330
1A5
100
AcDbDictionary
280
     1
281
     1
  3
AcDbContextDataManager
360
1A7
  0
DICTIONARY
  5
1B8
330
1B7
100
AcDbDictionary
280
     1
281
     1
  3
AcDbContextDataManager
360
1B9
  0
DICTIONARY
  5
1D0
330
1CF
100
AcDbDictionary
280
     1
281
     1
  3
AcDbContextDataManager
360
1D1
  0
DICTIONARY
  5
1E1
330
1E0
100
AcDbDictionary
280
     1
281
     1
  3
AcDbContextDataManager
360
1E2
  0
DICTIONARY
  5
1F2
330
1F1
100
AcDbDictionary
280
     1
281
     1
  3
AcDbContextDataManager
360
1F3
  0
DICTIONARY
  5
22E
330
22D
100
AcDbDictionary
280
     1
281
     1
  3
AcDbContextDataManager
360
22F
  0
DICTIONARY
  5
236
330
235
100
AcDbDictionary
280
     1
281
     1
  3
AcDbContextDataManager
360
237
  0
DICTIONARY
  5
247
330
246
100
AcDbDictionary
280
     1
281
     1
  3
AcDbContextDataManager
360
248
  0
DICTIONARY
  5
258
330
257
100
AcDbDictionary
280
     1
281
     1
  3
AcDbContextDataManager
360
259
  0
DICTIONARY
  5
277
330
276
100
AcDbDictionary
280
     1
281
     1
  3
AcDbContextDataManager
360
278
  0
DICTIONARY
  5
281
330
280
100
AcDbDictionary
280
     1
281
     1
  3
AcDbContextDataManager
360
282
  0
DICTIONARY
  5
292
330
291
100
AcDbDictionary
280
     1
281
     1
  3
AcDbContextDataManager
360
293
  0
DICTIONARY
  5
2A3
330
2A2
100
AcDbDictionary
280
     1
281
     1
  3
AcDbContextDataManager
360
2A4
  0
DICTIONARY
  5
2B4
330
2B3
100
AcDbDictionary
280
     1
281
     1
  3
AcDbContextDataManager
360
2B5
  0
DICTIONARY
  5
2C5
330
2C4
100
AcDbDictionary
280
     1
281
     1
  3
AcDbContextDataManager
360
2C6
  0
DICTIONARY
  5
2D6
330
2D5
100
AcDbDictionary
280
     1
281
     1
  3
AcDbContextDataManager
360
2D7
  0
DICTIONARY
  5
2E7
330
2E6
100
AcDbDictionary
280
     1
281
     1
  3
AcDbContextDataManager
360
2E8
  0
DICTIONARY
  5
2F8
330
2F7
100
AcDbDictionary
280
     1
281
     1
  3
AcDbContextDataManager
360
2F9
  0
DICTIONARY
  5
309
330
308
100
AcDbDictionary
280
     1
281
     1
  3
AcDbContextDataManager
360
30A
  0
DICTIONARY
  5
31A
330
319
100
AcDbDictionary
280
     1
281
     1
  3
AcDbContextDataManager
360
31B
  0
DICTIONARY
  5
32B
330
32A
100
AcDbDictionary
280
     1
281
     1
  3
AcDbContextDataManager
360
32C
  0
DICTIONARY
  5
33C
330
33B
100
AcDbDictionary
280
     1
281
     1
  3
AcDbContextDataManager
360
33D
  0
DICTIONARY
  5
34E
330
34D
100
AcDbDictionary
280
     1
281
     1
  3
AcDbContextDataManager
360
34F
  0
DICTIONARY
  5
35F
330
35E
100
AcDbDictionary
280
     1
281
     1
  3
AcDbContextDataManager
360
360
  0
DICTIONARY
  5
364
330
363
100
AcDbDictionary
280
     1
281
     1
  3
AcDbContextDataManager
360
365
  0
DICTIONARY
  5
369
330
368
100
AcDbDictionary
280
     1
281
     1
  3
AcDbContextDataManager
360
36A
  0
DICTIONARY
  5
36E
330
36D
100
AcDbDictionary
280
     1
281
     1
  3
AcDbContextDataManager
360
36F
  0
DICTIONARY
  5
381
330
380
100
AcDbDictionary
280
     1
281
     1
  3
AcDbContextDataManager
360
382
  0
DICTIONARY
  5
386
330
385
100
AcDbDictionary
280
     1
281
     1
  3
AcDbContextDataManager
360
387
  0
SUN
  5
406
330
405
100
AcDbSun
 90
        1
290
     0
 63
     7
421
 16777215
 40
1.0
291
     1
 91
  2455826
 92
 54000000
292
     0
 70
     2
 71
   256
280
     1
  0
SUN
  5
40A
330
409
100
AcDbSun
 90
        1
290
     0
 63
     7
421
 16777215
 40
1.0
291
     1
 91
  2455826
 92
 54000000
292
     0
 70
     2
 71
   256
280
     1
  0
SUN
  5
40C
330
40B
100
AcDbSun
 90
        1
290
     0
 63
     7
421
 16777215
 40
1.0
291
     1
 91
  2455826
 92
 54000000
292
     0
 70
     2
 71
   256
280
     1
  0
SUN
  5
40E
330
40D
100
AcDbSun
 90
        1
290
     0
 63
     7
421
 16777215
 40
1.0
291
     1
 91
  2455826
 92
 54000000
292
     0
 70
     2
 71
   256
280
     1
  0
SUN
  5
410
330
40F
100
AcDbSun
 90
        1
290
     0
 63
     7
421
 16777215
 40
1.0
291
     1
 91
  2455826
 92
 54000000
292
     0
 70
     2
 71
   256
280
     1
  0
DICTIONARY
  5
415
102
{ACAD_REACTORS
330
C
102
}
330
C
100
AcDbDictionary
281
     1
  0
DICTIONARY
  5
D
102
{ACAD_REACTORS
330
C
102
}
330
C
100
AcDbDictionary
281
     1
  0
DICTIONARY
  5
1A
102
{ACAD_REACTORS
330
C
102
}
330
C
100
AcDbDictionary
281
     1
  3
Ansicht Hompage
350
3B4
  3
Frontblatt Hompage
350
402
  3
Model
350
22
  3
Vertikalsschnitte
350
3C2
  0
DICTIONARY
  5
43
102
{ACAD_REACTORS
330
C
102
}
330
C
100
AcDbDictionary
281
     1
  3
ByBlock
350
45
  3
ByLayer
350
44
  3
Global
350
46
  0
DICTIONARY
  5
414
102
{ACAD_REACTORS
330
C
102
}
330
C
100
AcDbDictionary
281
     1
  0
DICTIONARY
  5
17
102
{ACAD_REACTORS
330
C
102
}
330
C
100
AcDbDictionary
281
     1
  3
Standard
350
18
  0
DICTIONARY
  5
19
102
{ACAD_REACTORS
330
C
102
}
330
C
100
AcDbDictionary
281
     1
  0
ACDBDICTIONARYWDFLT
  5
E
102
{ACAD_REACTORS
330
C
102
}
330
C
100
AcDbDictionary
281
     1
  3
Normal
350
F
100
AcDbDictionaryWithDefault
340
F
  0
DICTIONARY
  5
47
102
{ACAD_REACTORS
330
C
102
}
330
C
100
AcDbDictionary
281
     1
  3
A0
350
48
  3
A1
350
49
  3
A2
350
4A
  3
A3
350
4B
  3
A4
350
4C
  3
A5
350
4D
  3
A6
350
4E
  3
A7
350
4F
  3
A8
350
50
  3
A9
350
51
  3
B0
350
52
  3
B1
350
53
  3
B2
350
54
  3
B3
350
55
  3
B4
350
56
  3
B5
350
57
  3
B6
350
58
  3
B7
350
59
  3
B8
350
5A
  3
B9
350
5B
  3
C0
350
5C
  3
C1
350
5D
  3
C2
350
5E
  3
C3
350
5F
  3
C4
350
60
  3
C5
350
61
  3
C6
350
62
  3
C7
350
63
  3
C8
350
64
  3
C9
350
65
  3
D0
350
66
  3
D1
350
67
  3
D2
350
68
  3
D3
350
12C
  0
DICTIONARY
  5
416
102
{ACAD_REACTORS
330
C
102
}
330
C
100
AcDbDictionary
281
     1
  0
DICTIONARY
  5
413
102
{ACAD_REACTORS
330
C
102
}
330
C
100
AcDbDictionary
281
     1
  0
DICTIONARY
  5
2A
102
{ACAD_REACTORS
330
C
102
}
330
C
100
AcDbDictionary
281
     1
  3
2dWireframe
350
2F
  3
Basic
350
32
  3
Brighten
350
36
  3
ColorChange
350
3A
  3
Conceptual
350
34
  3
Dim
350
35
  3
EdgeColorOff
350
3D
  3
Facepattern
350
39
  3
Flat
350
2B
  3
FlatWithEdges
350
2C
  3
Gouraud
350
2D
  3
GouraudWithEdges
350
2E
  3
Hidden
350
31
  3
JitterOff
350
3B
  3
Linepattern
350
38
  3
OverhangOff
350
3C
  3
Realistic
350
33
  3
Shaded
350
42
  3
Shaded with edges
350
41
  3
Shades of Gray
350
3E
  3
Sketchy
350
3F
  3
Thicken
350
37
  3
Wireframe
350
30
  3
X-Ray
350
40
  0
DICTIONARY
  5
411
102
{ACAD_REACTORS
330
C
102
}
330
C
100
AcDbDictionary
281
     1
  3
CANNOSCALE
350
412
  0
XRECORD
  5
3C9
102
{ACAD_REACTORS
330
3C8
102
}
330
3C8
100
AcDbXrecord
280
     1
 90
        1
340
48
  0
DICTIONARY
  5
3CB
102
{ACAD_REACTORS
330
3CA
102
}
330
3CA
100
AcDbDictionary
281
     1
  3
ACDB_ANNOTATIONSCALES
350
3CC
  0
DICTIONARY
  5
3D0
102
{ACAD_REACTORS
330
3CF
102
}
330
3CF
100
AcDbDictionary
281
     1
  3
ACDB_ANNOTATIONSCALES
350
3D1
  0
DICTIONARY
  5
3D5
102
{ACAD_REACTORS
330
3D4
102
}
330
3D4
100
AcDbDictionary
281
     1
  3
ACDB_ANNOTATIONSCALES
350
3D6
  0
DICTIONARY
  5
3DA
102
{ACAD_REACTORS
330
3D9
102
}
330
3D9
100
AcDbDictionary
281
     1
  3
ACDB_ANNOTATIONSCALES
350
3DB
  0
DICTIONARY
  5
3DF
102
{ACAD_REACTORS
330
3DE
102
}
330
3DE
100
AcDbDictionary
281
     1
  3
ACDB_ANNOTATIONSCALES
350
3E0
  0
DICTIONARY
  5
3E4
102
{ACAD_REACTORS
330
3E3
102
}
330
3E3
100
AcDbDictionary
281
     1
  3
ACDB_ANNOTATIONSCALES
350
3E5
  0
DICTIONARY
  5
F0
102
{ACAD_REACTORS
330
EF
102
}
330
EF
100
AcDbDictionary
281
     1
  3
ACDB_ANNOTATIONSCALES
350
F1
  0
DICTIONARY
  5
102
102
{ACAD_REACTORS
330
101
102
}
330
101
100
AcDbDictionary
281
     1
  3
ACDB_ANNOTATIONSCALES
350
103
  0
DICTIONARY
  5
113
102
{ACAD_REACTORS
330
112
102
}
330
112
100
AcDbDictionary
281
     1
  3
ACDB_ANNOTATIONSCALES
350
114
  0
DICTIONARY
  5
12E
102
{ACAD_REACTORS
330
12D
102
}
330
12D
100
AcDbDictionary
281
     1
  3
ACDB_ANNOTATIONSCALES
350
12F
  0
DICTIONARY
  5
13F
102
{ACAD_REACTORS
330
13E
102
}
330
13E
100
AcDbDictionary
281
     1
  3
ACDB_ANNOTATIONSCALES
350
140
  0
DICTIONARY
  5
150
102
{ACAD_REACTORS
330
14F
102
}
330
14F
100
AcDbDictionary
281
     1
  3
ACDB_ANNOTATIONSCALES
350
151
  0
DICTIONARY
  5
161
102
{ACAD_REACTORS
330
160
102
}
330
160
100
AcDbDictionary
281
     1
  3
ACDB_ANNOTATIONSCALES
350
162
  0
DICTIONARY
  5
172
102
{ACAD_REACTORS
330
171
102
}
330
171
100
AcDbDictionary
281
     1
  3
ACDB_ANNOTATIONSCALES
350
173
  0
DICTIONARY
  5
183
102
{ACAD_REACTORS
330
182
102
}
330
182
100
AcDbDictionary
281
     1
  3
ACDB_ANNOTATIONSCALES
350
184
  0
DICTIONARY
  5
194
102
{ACAD_REACTORS
330
193
102
}
330
193
100
AcDbDictionary
281
     1
  3
ACDB_ANNOTATIONSCALES
350
195
  0
DICTIONARY
  5
1A7
102
{ACAD_REACTORS
330
1A6
102
}
330
1A6
100
AcDbDictionary
281
     1
  3
ACDB_ANNOTATIONSCALES
350
1A8
  0
DICTIONARY
  5
1B9
102
{ACAD_REACTORS
330
1B8
102
}
330
1B8
100
AcDbDictionary
281
     1
  3
ACDB_ANNOTATIONSCALES
350
1BA
  0
DICTIONARY
  5
1D1
102
{ACAD_REACTORS
330
1D0
102
}
330
1D0
100
AcDbDictionary
281
     1
  3
ACDB_ANNOTATIONSCALES
350
1D2
  0
DICTIONARY
  5
1E2
102
{ACAD_REACTORS
330
1E1
102
}
330
1E1
100
AcDbDictionary
281
     1
  3
ACDB_ANNOTATIONSCALES
350
1E3
  0
DICTIONARY
  5
1F3
102
{ACAD_REACTORS
330
1F2
102
}
330
1F2
100
AcDbDictionary
281
     1
  3
ACDB_ANNOTATIONSCALES
350
1F4
  0
DICTIONARY
  5
22F
102
{ACAD_REACTORS
330
22E
102
}
330
22E
100
AcDbDictionary
281
     1
  3
ACDB_ANNOTATIONSCALES
350
230
  0
DICTIONARY
  5
237
102
{ACAD_REACTORS
330
236
102
}
330
236
100
AcDbDictionary
281
     1
  3
ACDB_ANNOTATIONSCALES
350
238
  0
DICTIONARY
  5
248
102
{ACAD_REACTORS
330
247
102
}
330
247
100
AcDbDictionary
281
     1
  3
ACDB_ANNOTATIONSCALES
350
249
  0
DICTIONARY
  5
259
102
{ACAD_REACTORS
330
258
102
}
330
258
100
AcDbDictionary
281
     1
  3
ACDB_ANNOTATIONSCALES
350
25A
  0
DICTIONARY
  5
278
102
{ACAD_REACTORS
330
277
102
}
330
277
100
AcDbDictionary
281
     1
  3
ACDB_ANNOTATIONSCALES
350
279
  0
DICTIONARY
  5
282
102
{ACAD_REACTORS
330
281
102
}
330
281
100
AcDbDictionary
281
     1
  3
ACDB_ANNOTATIONSCALES
350
283
  0
DICTIONARY
  5
293
102
{ACAD_REACTORS
330
292
102
}
330
292
100
AcDbDictionary
281
     1
  3
ACDB_ANNOTATIONSCALES
350
294
  0
DICTIONARY
  5
2A4
102
{ACAD_REACTORS
330
2A3
102
}
330
2A3
100
AcDbDictionary
281
     1
  3
ACDB_ANNOTATIONSCALES
350
2A5
  0
DICTIONARY
  5
2B5
102
{ACAD_REACTORS
330
2B4
102
}
330
2B4
100
AcDbDictionary
281
     1
  3
ACDB_ANNOTATIONSCALES
350
2B6
  0
DICTIONARY
  5
2C6
102
{ACAD_REACTORS
330
2C5
102
}
330
2C5
100
AcDbDictionary
281
     1
  3
ACDB_ANNOTATIONSCALES
350
2C7
  0
DICTIONARY
  5
2D7
102
{ACAD_REACTORS
330
2D6
102
}
330
2D6
100
AcDbDictionary
281
     1
  3
ACDB_ANNOTATIONSCALES
350
2D8
  0
DICTIONARY
  5
2E8
102
{ACAD_REACTORS
330
2E7
102
}
330
2E7
100
AcDbDictionary
281
     1
  3
ACDB_ANNOTATIONSCALES
350
2E9
  0
DICTIONARY
  5
2F9
102
{ACAD_REACTORS
330
2F8
102
}
330
2F8
100
AcDbDictionary
281
     1
  3
ACDB_ANNOTATIONSCALES
350
2FA
  0
DICTIONARY
  5
30A
102
{ACAD_REACTORS
330
309
102
}
330
309
100
AcDbDictionary
281
     1
  3
ACDB_ANNOTATIONSCALES
350
30B
  0
DICTIONARY
  5
31B
102
{ACAD_REACTORS
330
31A
102
}
330
31A
100
AcDbDictionary
281
     1
  3
ACDB_ANNOTATIONSCALES
350
31C
  0
DICTIONARY
  5
32C
102
{ACAD_REACTORS
330
32B
102
}
330
32B
100
AcDbDictionary
281
     1
  3
ACDB_ANNOTATIONSCALES
350
32D
  0
DICTIONARY
  5
33D
102
{ACAD_REACTORS
330
33C
102
}
330
33C
100
AcDbDictionary
281
     1
  3
ACDB_ANNOTATIONSCALES
350
33E
  0
DICTIONARY
  5
34F
102
{ACAD_REACTORS
330
34E
102
}
330
34E
100
AcDbDictionary
281
     1
  3
ACDB_ANNOTATIONSCALES
350
350
  0
DICTIONARY
  5
360
102
{ACAD_REACTORS
330
35F
102
}
330
35F
100
AcDbDictionary
281
     1
  3
ACDB_ANNOTATIONSCALES
350
361
  0
DICTIONARY
  5
365
102
{ACAD_REACTORS
330
364
102
}
330
364
100
AcDbDictionary
281
     1
  3
ACDB_ANNOTATIONSCALES
350
366
  0
DICTIONARY
  5
36A
102
{ACAD_REACTORS
330
369
102
}
330
369
100
AcDbDictionary
281
     1
  3
ACDB_ANNOTATIONSCALES
350
36B
  0
DICTIONARY
  5
36F
102
{ACAD_REACTORS
330
36E
102
}
330
36E
100
AcDbDictionary
281
     1
  3
ACDB_ANNOTATIONSCALES
350
370
  0
DICTIONARY
  5
382
102
{ACAD_REACTORS
330
381
102
}
330
381
100
AcDbDictionary
281
     1
  3
ACDB_ANNOTATIONSCALES
350
383
  0
DICTIONARY
  5
387
102
{ACAD_REACTORS
330
386
102
}
330
386
100
AcDbDictionary
281
     1
  3
ACDB_ANNOTATIONSCALES
350
388
  0
LAYOUT
  5
3B4
102
{ACAD_REACTORS
330
1A
102
}
330
1A
100
AcDbPlotSettings
  1

  2
PDFCreator
  4

  6

 40
0.0
 41
0.0423333309590816
 42
0.0
 43
0.0
 44
209.8886566162109
 45
297.0530090332031
 46
0.0
 47
0.0
 48
0.0
 49
0.0423333309590816
140
209.8886566162109
141
297.0529839657247
142
1.0
143
1.0
 70
   688
 72
     1
 73
     0
 74
     4
  7

 75
    16
 76
     0
 77
     2
 78
   300
147
1.0
148
0.0
149
-0.0423333309590816
100
AcDbLayout
  1
Ansicht Hompage
 70
     1
 71
     0
 10
-20.0
 20
-7.5
 11
277.0
 21
202.5
 12
0.0
 22
0.0
 32
0.0
 14
0.0
 24
0.0
 34
0.0
 15
0.0
 25
0.0
 35
0.0
146
0.0
 13
0.0
 23
0.0
 33
0.0
 16
1.0
 26
0.0
 36
0.0
 17
0.0
 27
1.0
 37
0.0
 76
     0
330
3B3
331
3B7
  0
LAYOUT
  5
402
102
{ACAD_REACTORS
330
1A
102
}
330
1A
100
AcDbPlotSettings
  1

  2
PDFCreator
  4

  6

 40
0.0
 41
0.0423333309590816
 42
0.0
 43
0.0
 44
209.8886566162109
 45
297.0530090332031
 46
0.0
 47
0.0
 48
0.0
 49
0.0423333309590816
140
209.8886566162109
141
297.0529839657247
142
1.0
143
1.0
 70
   688
 72
     1
 73
     0
 74
     4
  7

 75
    16
 76
     0
 77
     2
 78
   300
147
1.0
148
0.0
149
-0.0423333309590816
100
AcDbLayout
  1
Frontblatt Hompage
 70
     1
 71
     2
 10
0.0
 20
0.0
 11
0.0
 21
0.0
 12
0.0
 22
0.0
 32
0.0
 14
0.0
 24
0.0
 34
0.0
 15
0.0
 25
0.0
 35
0.0
146
0.0
 13
0.0
 23
0.0
 33
0.0
 16
1.0
 26
0.0
 36
0.0
 17
0.0
 27
1.0
 37
0.0
 76
     0
330
401
331
405
  0
LAYOUT
  5
22
102
{ACAD_REACTORS
330
1A
102
}
330
1A
100
AcDbPlotSettings
  1

  2
none_device
  4
Letter_(8.50_x_11.00_Inches)
  6

 40
6.35
 41
6.35
 42
6.35000508
 43
6.35000508
 44
215.9
 45
279.4
 46
0.0
 47
0.0
 48
0.0
 49
0.0
140
0.0
141
0.0
142
1.0
143
1.0
 70
  1712
 72
     1
 73
     0
 74
     0
  7

 75
     0
 76
     0
 77
     2
 78
   300
147
1.0
148
0.0
149
0.0
100
AcDbLayout
  1
Model
 70
     1
 71
     0
 10
0.0
 20
0.0
 11
420.0
 21
297.0
 12
0.0
 22
0.0
 32
0.0
 14
-55657.50082397461
 24
-9920.02099609375
 34
0.0
 15
2626.1875
 25
-3439.62841796875
 35
0.0
146
0.0
 13
0.0
 23
0.0
 33
0.0
 16
1.0
 26
0.0
 36
0.0
 17
0.0
 27
1.0
 37
0.0
 76
     0
330
1F
331
29
  0
LAYOUT
  5
3C2
102
{ACAD_REACTORS
330
1A
102
}
330
1A
100
AcDbPlotSettings
  1

  2
PDFCreator
  4

  6

 40
0.0
 41
0.0423333309590816
 42
0.0
 43
0.0
 44
209.8886566162109
 45
297.0530090332031
 46
0.0
 47
0.1084314111184546
 48
0.0
 49
0.1693333238363266
140
297.0106506347656
141
420.1583164781332
142
1.0
143
1.415086719897686
 70
   676
 72
     1
 73
     0
 74
     4
  7

 75
    16
 76
     0
 77
     2
 78
   300
147
1.0
148
0.0
149
-0.1693333238363266
100
AcDbLayout
  1
Vertikalsschnitte
 70
     1
 71
     1
 10
0.0
 20
0.0
 11
0.0
 21
0.0
 12
0.0
 22
0.0
 32
0.0
 14
0.0
 24
0.0
 34
0.0
 15
0.0
 25
0.0
 35
0.0
146
0.0
 13
0.0
 23
0.0
 33
0.0
 16
1.0
 26
0.0
 36
0.0
 17
0.0
 27
1.0
 37
0.0
 76
     0
330
3C1
331
3C5
  0
MATERIAL
  5
45
102
{ACAD_REACTORS
330
43
102
}
330
43
100
AcDbMaterial
  1
ByBlock
 72
     1
 94
      127
  0
MATERIAL
  5
44
102
{ACAD_REACTORS
330
43
102
}
330
43
100
AcDbMaterial
  1
ByLayer
 72
     1
 94
      127
  0
MATERIAL
  5
46
102
{ACAD_REACTORS
330
43
102
}
330
43
100
AcDbMaterial
  1
Global
 72
     1
 94
      127
  0
MLINESTYLE
  5
18
102
{ACAD_REACTORS
330
17
102
}
330
17
100
AcDbMlineStyle
  2
Standard
 70
     0
  3

 62
   256
 51
90.0
 52
90.0
 71
     2
 49
0.5
 62
   256
  6
BYLAYER
 49
-0.5
 62
   256
  6
BYLAYER
  0
ACDBPLACEHOLDER
  5
F
102
{ACAD_REACTORS
330
E
102
}
330
E
  0
SCALE
  5
48
102
{ACAD_REACTORS
330
47
102
}
330
47
100
AcDbScale
 70
     0
300
1:1
140
1.0
141
1.0
290
     1
  0
SCALE
  5
49
102
{ACAD_REACTORS
330
47
102
}
330
47
100
AcDbScale
 70
     0
300
1:2
140
1.0
141
2.0
290
     0
  0
SCALE
  5
4A
102
{ACAD_REACTORS
330
47
102
}
330
47
100
AcDbScale
 70
     0
300
1:4
140
1.0
141
4.0
290
     0
  0
SCALE
  5
4B
102
{ACAD_REACTORS
330
47
102
}
330
47
100
AcDbScale
 70
     0
300
1:5
140
1.0
141
5.0
290
     0
  0
SCALE
  5
4C
102
{ACAD_REACTORS
330
47
102
}
330
47
100
AcDbScale
 70
     0
300
1:8
140
1.0
141
8.0
290
     0
  0
SCALE
  5
4D
102
{ACAD_REACTORS
330
47
102
}
330
47
100
AcDbScale
 70
     0
300
1:10
140
1.0
141
10.0
290
     0
  0
SCALE
  5
4E
102
{ACAD_REACTORS
330
47
102
}
330
47
100
AcDbScale
 70
     0
300
1:16
140
1.0
141
16.0
290
     0
  0
SCALE
  5
4F
102
{ACAD_REACTORS
330
47
102
}
330
47
100
AcDbScale
 70
     0
300
1:20
140
1.0
141
20.0
290
     0
  0
SCALE
  5
50
102
{ACAD_REACTORS
330
47
102
}
330
47
100
AcDbScale
 70
     0
300
1:30
140
1.0
141
30.0
290
     0
  0
SCALE
  5
51
102
{ACAD_REACTORS
330
47
102
}
330
47
100
AcDbScale
 70
     0
300
1:40
140
1.0
141
40.0
290
     0
  0
SCALE
  5
52
102
{ACAD_REACTORS
330
47
102
}
330
47
100
AcDbScale
 70
     0
300
1:50
140
1.0
141
50.0
290
     0
  0
SCALE
  5
53
102
{ACAD_REACTORS
330
47
102
}
330
47
100
AcDbScale
 70
     0
300
1:100
140
1.0
141
100.0
290
     0
  0
SCALE
  5
54
102
{ACAD_REACTORS
330
47
102
}
330
47
100
AcDbScale
 70
     0
300
2:1
140
2.0
141
1.0
290
     0
  0
SCALE
  5
55
102
{ACAD_REACTORS
330
47
102
}
330
47
100
AcDbScale
 70
     0
300
4:1
140
4.0
141
1.0
290
     0
  0
SCALE
  5
56
102
{ACAD_REACTORS
330
47
102
}
330
47
100
AcDbScale
 70
     0
300
8:1
140
8.0
141
1.0
290
     0
  0
SCALE
  5
57
102
{ACAD_REACTORS
330
47
102
}
330
47
100
AcDbScale
 70
     0
300
10:1
140
10.0
141
1.0
290
     0
  0
SCALE
  5
58
102
{ACAD_REACTORS
330
47
102
}
330
47
100
AcDbScale
 70
     0
300
100:1
140
100.0
141
1.0
290
     0
  0
SCALE
  5
59
102
{ACAD_REACTORS
330
47
102
}
330
47
100
AcDbScale
 70
     0
300
1/128" = 1'-0"
140
0.0078125
141
12.0
290
     0
  0
SCALE
  5
5A
102
{ACAD_REACTORS
330
47
102
}
330
47
100
AcDbScale
 70
     0
300
1/64" = 1'-0"
140
0.015625
141
12.0
290
     0
  0
SCALE
  5
5B
102
{ACAD_REACTORS
330
47
102
}
330
47
100
AcDbScale
 70
     0
300
1/32" = 1'-0"
140
0.03125
141
12.0
290
     0
  0
SCALE
  5
5C
102
{ACAD_REACTORS
330
47
102
}
330
47
100
AcDbScale
 70
     0
300
1/16" = 1'-0"
140
0.0625
141
12.0
290
     0
  0
SCALE
  5
5D
102
{ACAD_REACTORS
330
47
102
}
330
47
100
AcDbScale
 70
     0
300
3/32" = 1'-0"
140
0.09375
141
12.0
290
     0
  0
SCALE
  5
5E
102
{ACAD_REACTORS
330
47
102
}
330
47
100
AcDbScale
 70
     0
300
1/8" = 1'-0"
140
0.125
141
12.0
290
     0
  0
SCALE
  5
5F
102
{ACAD_REACTORS
330
47
102
}
330
47
100
AcDbScale
 70
     0
300
3/16" = 1'-0"
140
0.1875
141
12.0
290
     0
  0
SCALE
  5
60
102
{ACAD_REACTORS
330
47
102
}
330
47
100
AcDbScale
 70
     0
300
1/4" = 1'-0"
140
0.25
141
12.0
290
     0
  0
SCALE
  5
61
102
{ACAD_REACTORS
330
47
102
}
330
47
100
AcDbScale
 70
     0
300
3/8" = 1'-0"
140
0.375
141
12.0
290
     0
  0
SCALE
  5
62
102
{ACAD_REACTORS
330
47
102
}
330
47
100
AcDbScale
 70
     0
300
1/2" = 1'-0"
140
0.5
141
12.0
290
     0
  0
SCALE
  5
63
102
{ACAD_REACTORS
330
47
102
}
330
47
100
AcDbScale
 70
     0
300
3/4" = 1'-0"
140
0.75
141
12.0
290
     0
  0
SCALE
  5
64
102
{ACAD_REACTORS
330
47
102
}
330
47
100
AcDbScale
 70
     0
300
1" = 1'-0"
140
1.0
141
12.0
290
     0
  0
SCALE
  5
65
102
{ACAD_REACTORS
330
47
102
}
330
47
100
AcDbScale
 70
     0
300
1-1/2" = 1'-0"
140
1.5
141
12.0
290
     0
  0
SCALE
  5
66
102
{ACAD_REACTORS
330
47
102
}
330
47
100
AcDbScale
 70
     0
300
3" = 1'-0"
140
3.0
141
12.0
290
     0
  0
SCALE
  5
67
102
{ACAD_REACTORS
330
47
102
}
330
47
100
AcDbScale
 70
     0
300
6" = 1'-0"
140
6.0
141
12.0
290
     0
  0
SCALE
  5
68
102
{ACAD_REACTORS
330
47
102
}
330
47
100
AcDbScale
 70
     0
300
1'-0" = 1'-0"
140
12.0
141
12.0
290
     0
  0
SCALE
  5
12C
102
{ACAD_REACTORS
330
47
102
}
330
47
100
AcDbScale
 70
     0
300
1:25
140
1.0
141
25.0
290
     0
  0
VISUALSTYLE
  5
2F
102
{ACAD_REACTORS
330
2A
102
}
330
2A
100
AcDbVisualStyle
  2
2dWireframe
 70
     4
177
     3
291
     0
 70
    58
 90
        0
176
     1
 90
        2
176
     1
 90
        0
176
     1
 90
        0
176
     1
 40
0.6
176
     1
 40
30.0
176
     1
 62
     7
420
 16777215
176
     1
 90
        1
176
     1
 90
        4
176
     1
 62
     7
176
     1
 62
   257
176
     1
 90
        1
176
     1
 90
        1
176
     1
 40
1.0
176
     1
 90
        0
176
     1
 62
   257
176
     1
 40
1.0
176
     1
 90
        1
176
     1
 90
        6
176
     1
 90
        2
176
     1
 62
     7
176
     1
 90
        5
176
     1
 90
        0
176
     1
 90
        0
176
     1
290
     0
176
     1
 90
        1
176
     1
 40
0.0
176
     1
 90
        0
176
     1
290
     1
176
     1
290
     1
176
     1
290
     0
176
     1
290
     0
176
     1
290
     0
176
     1
290
     0
176
     1
290
     0
176
     1
290
     0
176
     1
290
     0
176
     1
 90
       50
176
     1
 40
0.0
176
     1
 40
1.0
176
     1
 90
        0
176
     1
 62
    18
420
        0
176
     1
 90
       50
176
     1
 90
        3
176
     1
 62
     5
420
      255
176
     1
290
     0
176
     1
 90
       50
176
     1
 90
       50
176
     1
 90
       50
176
     1
290
     0
176
     1
 90
       50
176
     1
 62
   256
176
     0
 40
1.0
176
     0
 90
        2
176
     1
  1
strokes_ogs.tif
176
     1
290
     0
176
     1
 40
1.0
176
     1
 40
1.0
176
     1
  0
VISUALSTYLE
  5
32
102
{ACAD_REACTORS
330
2A
102
}
330
2A
100
AcDbVisualStyle
  2
Basic
 70
     7
177
     3
291
     1
 70
    58
 90
        1
176
     1
 90
        0
176
     1
 90
        1
176
     1
 90
        0
176
     1
 40
0.6
176
     1
 40
30.0
176
     1
 62
     7
420
 16777215
176
     1
 90
        0
176
     1
 90
        4
176
     1
 62
     7
176
     1
 62
   257
176
     1
 90
        1
176
     1
 90
        1
176
     1
 40
1.0
176
     1
 90
        8
176
     1
 62
     7
176
     1
 40
1.0
176
     1
 90
        1
176
     1
 90
        6
176
     1
 90
        2
176
     1
 62
     7
176
     1
 90
        5
176
     1
 90
        0
176
     1
 90
        0
176
     1
290
     0
176
     1
 90
        1
176
     1
 40
0.0
176
     1
 90
        0
176
     1
290
     0
176
     1
290
     1
176
     1
290
     1
176
     1
290
     0
176
     1
290
     0
176
     1
290
     0
176
     1
290
     0
176
     1
290
     0
176
     1
290
     0
176
     1
 90
       50
176
     1
 40
0.0
176
     1
 40
1.0
176
     1
 90
        0
176
     1
 62
    18
420
        0
176
     1
 90
       50
176
     1
 90
        3
176
     1
 62
     5
420
      255
176
     1
290
     0
176
     1
 90
       50
176
     1
 90
       50
176
     1
 90
       50
176
     1
290
     0
176
     1
 90
       50
176
     1
 62
   256
176
     0
 40
1.0
176
     0
 90
        2
176
     1
  1
strokes_ogs.tif
176
     1
290
     0
176
     1
 40
1.0
176
     1
 40
1.0
176
     1
  0
VISUALSTYLE
  5
36
102
{ACAD_REACTORS
330
2A
102
}
330
2A
100
AcDbVisualStyle
  2
Brighten
 70
    12
177
     3
291
     1
 70
    58
 90
        2
176
     1
 90
        2
176
     1
 90
        0
176
     1
 90
        0
176
     1
 40
0.6
176
     1
 40
30.0
176
     1
 62
     7
420
 16777215
176
     1
 90
        1
176
     1
 90
        4
176
     1
 62
     7
176
     1
 62
   257
176
     1
 90
        1
176
     1
 90
        1
176
     1
 40
1.0
176
     1
 90
        8
176
     1
 62
     7
176
     1
 40
1.0
176
     1
 90
        1
176
     1
 90
        6
176
     1
 90
        2
176
     1
 62
     7
176
     1
 90
        5
176
     1
 90
        0
176
     1
 90
        0
176
     1
290
     0
176
     1
 90
        1
176
     1
 40
50.0
176
     1
 90
        0
176
     1
290
     0
176
     1
290
     1
176
     1
290
     1
176
     1
290
     0
176
     1
290
     0
176
     1
290
     0
176
     1
290
     0
176
     1
290
     0
176
     1
290
     0
176
     1
 90
       50
176
     1
 40
0.0
176
     1
 40
1.0
176
     1
 90
        0
176
     1
 62
    18
420
        0
176
     1
 90
       50
176
     1
 90
        3
176
     1
 62
     5
420
      255
176
     1
290
     0
176
     1
 90
       50
176
     1
 90
       50
176
     1
 90
       50
176
     1
290
     0
176
     1
 90
       50
176
     1
 62
   256
176
     0
 40
1.0
176
     0
 90
        2
176
     1
  1
strokes_ogs.tif
176
     1
290
     0
176
     1
 40
1.0
176
     1
 40
1.0
176
     1
  0
VISUALSTYLE
  5
3A
102
{ACAD_REACTORS
330
2A
102
}
330
2A
100
AcDbVisualStyle
  2
ColorChange
 70
    16
177
     3
291
     1
 70
    58
 90
        2
176
     1
 90
        2
176
     1
 90
        3
176
     1
 90
        0
176
     1
 40
0.6
176
     1
 40
30.0
176
     1
 62
     8
420
  8421504
176
     1
 90
        1
176
     1
 90
        4
176
     1
 62
     7
176
     1
 62
   257
176
     1
 90
        1
176
     1
 90
        1
176
     1
 40
1.0
176
     1
 90
        8
176
     1
 62
     8
420
  8421504
176
     1
 40
1.0
176
     1
 90
        1
176
     1
 90
        6
176
     1
 90
        2
176
     1
 62
     7
176
     1
 90
        5
176
     1
 90
        0
176
     1
 90
        0
176
     1
290
     0
176
     1
 90
        1
176
     1
 40
0.0
176
     1
 90
        0
176
     1
290
     0
176
     1
290
     1
176
     1
290
     1
176
     1
290
     0
176
     1
290
     0
176
     1
290
     0
176
     1
290
     0
176
     1
290
     0
176
     1
290
     0
176
     1
 90
       50
176
     1
 40
0.0
176
     1
 40
1.0
176
     1
 90
        0
176
     1
 62
    18
420
        0
176
     1
 90
       50
176
     1
 90
        3
176
     1
 62
     5
420
      255
176
     1
290
     0
176
     1
 90
       50
176
     1
 90
       50
176
     1
 90
       50
176
     1
290
     0
176
     1
 90
       50
176
     1
 62
   256
176
     0
 40
1.0
176
     0
 90
        2
176
     1
  1
strokes_ogs.tif
176
     1
290
     0
176
     1
 40
1.0
176
     1
 40
1.0
176
     1
  0
VISUALSTYLE
  5
34
102
{ACAD_REACTORS
330
2A
102
}
330
2A
100
AcDbVisualStyle
  2
Conceptual
 70
     9
177
     3
291
     0
 70
    58
 90
        3
176
     1
 90
        2
176
     1
 90
        0
176
     1
 90
        0
176
     1
 40
0.6
176
     1
 40
30.0
176
     1
 62
     7
420
 16777215
176
     1
 90
        2
176
     1
 90
        2
176
     1
 62
     7
176
     1
 62
   257
176
     1
 90
        1
176
     1
 90
        1
176
     1
 40
179.0
176
     1
 90
        8
176
     1
 62
     7
176
     1
 40
1.0
176
     1
 90
        1
176
     1
 90
        6
176
     1
 90
        2
176
     1
 62
     7
176
     1
 90
        3
176
     1
 90
        0
176
     1
 90
        0
176
     1
290
     0
176
     1
 90
        1
176
     1
 40
0.0
176
     1
 90
        0
176
     1
290
     0
176
     1
290
     1
176
     1
290
     1
176
     1
290
     0
176
     1
290
     0
176
     1
290
     0
176
     1
290
     0
176
     1
290
     0
176
     1
290
     0
176
     1
 90
       50
176
     1
 40
0.0
176
     1
 40
1.0
176
     1
 90
        0
176
     1
 62
    18
420
        0
176
     1
 90
       50
176
     1
 90
        3
176
     1
 62
     5
420
      255
176
     1
290
     0
176
     1
 90
       50
176
     1
 90
       50
176
     1
 90
       50
176
     1
290
     0
176
     1
 90
       50
176
     1
 62
   256
176
     0
 40
1.0
176
     0
 90
        2
176
     1
  1
strokes_ogs.tif
176
     1
290
     0
176
     1
 40
1.0
176
     1
 40
1.0
176
     1
  0
VISUALSTYLE
  5
35
102
{ACAD_REACTORS
330
2A
102
}
330
2A
100
AcDbVisualStyle
  2
Dim
 70
    11
177
     3
291
     1
 70
    58
 90
        2
176
     1
 90
        2
176
     1
 90
        0
176
     1
 90
        0
176
     1
 40
0.6
176
     1
 40
30.0
176
     1
 62
     7
420
 16777215
176
     1
 90
        1
176
     1
 90
        4
176
     1
 62
     7
176
     1
 62
   257
176
     1
 90
        1
176
     1
 90
        1
176
     1
 40
1.0
176
     1
 90
        8
176
     1
 62
     7
176
     1
 40
1.0
176
     1
 90
        1
176
     1
 90
        6
176
     1
 90
        2
176
     1
 62
     7
176
     1
 90
        5
176
     1
 90
        0
176
     1
 90
        0
176
     1
290
     0
176
     1
 90
        1
176
     1
 40
-50.0
176
     1
 90
        0
176
     1
290
     0
176
     1
290
     1
176
     1
290
     1
176
     1
290
     0
176
     1
290
     0
176
     1
290
     0
176
     1
290
     0
176
     1
290
     0
176
     1
290
     0
176
     1
 90
       50
176
     1
 40
0.0
176
     1
 40
1.0
176
     1
 90
        0
176
     1
 62
    18
420
        0
176
     1
 90
       50
176
     1
 90
        3
176
     1
 62
     5
420
      255
176
     1
290
     0
176
     1
 90
       50
176
     1
 90
       50
176
     1
 90
       50
176
     1
290
     0
176
     1
 90
       50
176
     1
 62
   256
176
     0
 40
1.0
176
     0
 90
        2
176
     1
  1
strokes_ogs.tif
176
     1
290
     0
176
     1
 40
1.0
176
     1
 40
1.0
176
     1
  0
VISUALSTYLE
  5
3D
102
{ACAD_REACTORS
330
2A
102
}
330
2A
100
AcDbVisualStyle
  2
EdgeColorOff
 70
    22
177
     3
291
     1
 70
    58
 90
        2
176
     0
 90
        2
176
     0
 90
        0
176
     0
 90
        0
176
     0
 40
0.6
176
     0
 40
30.0
176
     0
 62
     7
420
 16777215
176
     0
 90
        1
176
     0
 90
        4
176
     0
 62
     7
176
     0
 62
   257
176
     0
 90
        1
176
     0
 90
        1
176
     0
 40
1.0
176
     0
 90
        8
176
     2
 62
     7
176
     0
 40
1.0
176
     0
 90
        1
176
     0
 90
        6
176
     0
 90
        2
176
     0
 62
     7
176
     0
 90
        5
176
     0
 90
        0
176
     0
 90
        0
176
     0
290
     0
176
     0
 90
        1
176
     0
 40
0.0
176
     0
 90
        0
176
     0
290
     0
176
     0
290
     1
176
     0
290
     1
176
     0
290
     0
176
     0
290
     0
176
     0
290
     0
176
     0
290
     0
176
     0
290
     0
176
     0
290
     0
176
     0
 90
       50
176
     0
 40
0.0
176
     0
 40
1.0
176
     0
 90
        0
176
     0
 62
    18
420
        0
176
     0
 90
       50
176
     0
 90
        3
176
     0
 62
     5
420
      255
176
     0
290
     0
176
     0
 90
       50
176
     0
 90
       50
176
     0
 90
       50
176
     0
290
     0
176
     0
 90
       50
176
     0
 62
   256
176
     0
 40
1.0
176
     0
 90
        2
176
     0
  1
strokes_ogs.tif
176
     0
290
     0
176
     0
 40
1.0
176
     0
 40
1.0
176
     0
  0
VISUALSTYLE
  5
39
102
{ACAD_REACTORS
330
2A
102
}
330
2A
100
AcDbVisualStyle
  2
Facepattern
 70
    15
177
     3
291
     1
 70
    58
 90
        2
176
     1
 90
        2
176
     1
 90
        0
176
     1
 90
        0
176
     1
 40
0.6
176
     1
 40
30.0
176
     1
 62
     7
420
 16777215
176
     1
 90
        1
176
     1
 90
        4
176
     1
 62
     7
176
     1
 62
   257
176
     1
 90
        1
176
     1
 90
        1
176
     1
 40
1.0
176
     1
 90
        8
176
     1
 62
     7
176
     1
 40
1.0
176
     1
 90
        1
176
     1
 90
        6
176
     1
 90
        2
176
     1
 62
     7
176
     1
 90
        5
176
     1
 90
        0
176
     1
 90
        0
176
     1
290
     0
176
     1
 90
        1
176
     1
 40
0.0
176
     1
 90
        0
176
     1
290
     0
176
     1
290
     1
176
     1
290
     1
176
     1
290
     0
176
     1
290
     0
176
     1
290
     0
176
     1
290
     0
176
     1
290
     0
176
     1
290
     0
176
     1
 90
       50
176
     1
 40
0.0
176
     1
 40
1.0
176
     1
 90
        0
176
     1
 62
    18
420
        0
176
     1
 90
       50
176
     1
 90
        3
176
     1
 62
     5
420
      255
176
     1
290
     0
176
     1
 90
       50
176
     1
 90
       50
176
     1
 90
       50
176
     1
290
     0
176
     1
 90
       50
176
     1
 62
   256
176
     0
 40
1.0
176
     0
 90
        2
176
     1
  1
strokes_ogs.tif
176
     1
290
     0
176
     1
 40
1.0
176
     1
 40
1.0
176
     1
  0
VISUALSTYLE
  5
2B
102
{ACAD_REACTORS
330
2A
102
}
330
2A
100
AcDbVisualStyle
  2
Flat
 70
     0
177
     3
291
     1
 70
    58
 90
        2
176
     1
 90
        1
176
     1
 90
        1
176
     1
 90
        2
176
     1
 40
0.6
176
     1
 40
30.0
176
     1
 62
     7
420
 16777215
176
     1
 90
        0
176
     1
 90
        0
176
     1
 62
     7
176
     1
 62
   257
176
     1
 90
        1
176
     1
 90
        1
176
     1
 40
1.0
176
     1
 90
        8
176
     1
 62
     7
176
     1
 40
1.0
176
     1
 90
        1
176
     1
 90
        6
176
     1
 90
        2
176
     1
 62
     7
176
     1
 90
        5
176
     1
 90
        0
176
     1
 90
        0
176
     1
290
     0
176
     1
 90
       13
176
     1
 40
0.0
176
     1
 90
        0
176
     1
290
     0
176
     1
290
     1
176
     1
290
     1
176
     1
290
     0
176
     1
290
     0
176
     1
290
     0
176
     1
290
     0
176
     1
290
     0
176
     1
290
     0
176
     1
 90
       50
176
     1
 40
0.0
176
     1
 40
1.0
176
     1
 90
        0
176
     1
 62
    18
420
        0
176
     1
 90
       50
176
     1
 90
        3
176
     1
 62
     5
420
      255
176
     1
290
     0
176
     1
 90
       50
176
     1
 90
       50
176
     1
 90
       50
176
     1
290
     0
176
     1
 90
       50
176
     1
 62
   256
176
     0
 40
1.0
176
     0
 90
        2
176
     1
  1
strokes_ogs.tif
176
     1
290
     0
176
     1
 40
1.0
176
     1
 40
1.0
176
     1
  0
VISUALSTYLE
  5
2C
102
{ACAD_REACTORS
330
2A
102
}
330
2A
100
AcDbVisualStyle
  2
FlatWithEdges
 70
     1
177
     3
291
     1
 70
    58
 90
        2
176
     1
 90
        1
176
     1
 90
        1
176
     1
 90
        2
176
     1
 40
0.6
176
     1
 40
30.0
176
     1
 62
     7
420
 16777215
176
     1
 90
        1
176
     1
 90
        0
176
     1
 62
     7
176
     1
 62
   257
176
     1
 90
        1
176
     1
 90
        1
176
     1
 40
1.0
176
     1
 90
        0
176
     1
 62
   257
176
     1
 40
1.0
176
     1
 90
        1
176
     1
 90
        6
176
     1
 90
        2
176
     1
 62
     7
176
     1
 90
        5
176
     1
 90
        0
176
     1
 90
        0
176
     1
290
     0
176
     1
 90
       13
176
     1
 40
0.0
176
     1
 90
        0
176
     1
290
     0
176
     1
290
     1
176
     1
290
     1
176
     1
290
     0
176
     1
290
     0
176
     1
290
     0
176
     1
290
     0
176
     1
290
     0
176
     1
290
     0
176
     1
 90
       50
176
     1
 40
0.0
176
     1
 40
1.0
176
     1
 90
        0
176
     1
 62
    18
420
        0
176
     1
 90
       50
176
     1
 90
        3
176
     1
 62
     5
420
      255
176
     1
290
     0
176
     1
 90
       50
176
     1
 90
       50
176
     1
 90
       50
176
     1
290
     0
176
     1
 90
       50
176
     1
 62
   256
176
     0
 40
1.0
176
     0
 90
        2
176
     1
  1
strokes_ogs.tif
176
     1
290
     0
176
     1
 40
1.0
176
     1
 40
1.0
176
     1
  0
VISUALSTYLE
  5
2D
102
{ACAD_REACTORS
330
2A
102
}
330
2A
100
AcDbVisualStyle
  2
Gouraud
 70
     2
177
     3
291
     1
 70
    58
 90
        2
176
     1
 90
        2
176
     1
 90
        1
176
     1
 90
        2
176
     1
 40
0.6
176
     1
 40
30.0
176
     1
 62
     7
420
 16777215
176
     1
 90
        0
176
     1
 90
        0
176
     1
 62
     7
176
     1
 62
   257
176
     1
 90
        1
176
     1
 90
        1
176
     1
 40
1.0
176
     1
 90
        0
176
     1
 62
     7
176
     1
 40
1.0
176
     1
 90
        1
176
     1
 90
        6
176
     1
 90
        2
176
     1
 62
     7
176
     1
 90
        5
176
     1
 90
        0
176
     1
 90
        0
176
     1
290
     0
176
     1
 90
       13
176
     1
 40
0.0
176
     1
 90
        0
176
     1
290
     0
176
     1
290
     1
176
     1
290
     1
176
     1
290
     0
176
     1
290
     0
176
     1
290
     0
176
     1
290
     0
176
     1
290
     0
176
     1
290
     0
176
     1
 90
       50
176
     1
 40
0.0
176
     1
 40
1.0
176
     1
 90
        0
176
     1
 62
    18
420
        0
176
     1
 90
       50
176
     1
 90
        3
176
     1
 62
     5
420
      255
176
     1
290
     0
176
     1
 90
       50
176
     1
 90
       50
176
     1
 90
       50
176
     1
290
     0
176
     1
 90
       50
176
     1
 62
   256
176
     0
 40
1.0
176
     0
 90
        2
176
     1
  1
strokes_ogs.tif
176
     1
290
     0
176
     1
 40
1.0
176
     1
 40
1.0
176
     1
  0
VISUALSTYLE
  5
2E
102
{ACAD_REACTORS
330
2A
102
}
330
2A
100
AcDbVisualStyle
  2
GouraudWithEdges
 70
     3
177
     3
291
     1
 70
    58
 90
        2
176
     1
 90
        2
176
     1
 90
        1
176
     1
 90
        2
176
     1
 40
0.6
176
     1
 40
30.0
176
     1
 62
     7
420
 16777215
176
     1
 90
        1
176
     1
 90
        0
176
     1
 62
     7
176
     1
 62
   257
176
     1
 90
        1
176
     1
 90
        1
176
     1
 40
1.0
176
     1
 90
        0
176
     1
 62
   257
176
     1
 40
1.0
176
     1
 90
        1
176
     1
 90
        6
176
     1
 90
        2
176
     1
 62
     7
176
     1
 90
        5
176
     1
 90
        0
176
     1
 90
        0
176
     1
290
     0
176
     1
 90
       13
176
     1
 40
0.0
176
     1
 90
        0
176
     1
290
     0
176
     1
290
     1
176
     1
290
     1
176
     1
290
     0
176
     1
290
     0
176
     1
290
     0
176
     1
290
     0
176
     1
290
     0
176
     1
290
     0
176
     1
 90
       50
176
     1
 40
0.0
176
     1
 40
1.0
176
     1
 90
        0
176
     1
 62
    18
420
        0
176
     1
 90
       50
176
     1
 90
        3
176
     1
 62
     5
420
      255
176
     1
290
     0
176
     1
 90
       50
176
     1
 90
       50
176
     1
 90
       50
176
     1
290
     0
176
     1
 90
       50
176
     1
 62
   256
176
     0
 40
1.0
176
     0
 90
        2
176
     1
  1
strokes_ogs.tif
176
     1
290
     0
176
     1
 40
1.0
176
     1
 40
1.0
176
     1
  0
VISUALSTYLE
  5
31
102
{ACAD_REACTORS
330
2A
102
}
330
2A
100
AcDbVisualStyle
  2
Hidden
 70
     6
177
     3
291
     0
 70
    58
 90
        1
176
     1
 90
        2
176
     1
 90
        2
176
     1
 90
        0
176
     1
 40
0.6
176
     1
 40
30.0
176
     1
 62
     7
420
 16777215
176
     1
 90
        2
176
     1
 90
        2
176
     1
 62
     7
176
     1
 62
   257
176
     1
 90
        2
176
     1
 90
        1
176
     1
 40
40.0
176
     1
 90
        0
176
     1
 62
   257
176
     1
 40
1.0
176
     1
 90
        1
176
     1
 90
        6
176
     1
 90
        2
176
     1
 62
     7
176
     1
 90
        3
176
     1
 90
        0
176
     1
 90
        0
176
     1
290
     0
176
     1
 90
        1
176
     1
 40
0.0
176
     1
 90
        0
176
     1
290
     0
176
     1
290
     1
176
     1
290
     1
176
     1
290
     0
176
     1
290
     0
176
     1
290
     0
176
     1
290
     0
176
     1
290
     0
176
     1
290
     0
176
     1
 90
       50
176
     1
 40
0.0
176
     1
 40
1.0
176
     1
 90
        0
176
     1
 62
    18
420
        0
176
     1
 90
       50
176
     1
 90
        3
176
     1
 62
     5
420
      255
176
     1
290
     0
176
     1
 90
       50
176
     1
 90
       50
176
     1
 90
       50
176
     1
290
     0
176
     1
 90
       50
176
     1
 62
   256
176
     0
 40
1.0
176
     0
 90
        2
176
     1
  1
strokes_ogs.tif
176
     1
290
     0
176
     1
 40
1.0
176
     1
 40
1.0
176
     1
  0
VISUALSTYLE
  5
3B
102
{ACAD_REACTORS
330
2A
102
}
330
2A
100
AcDbVisualStyle
  2
JitterOff
 70
    20
177
     3
291
     1
 70
    58
 90
        2
176
     0
 90
        2
176
     0
 90
        0
176
     0
 90
        0
176
     0
 40
0.6
176
     0
 40
30.0
176
     0
 62
     7
420
 16777215
176
     0
 90
        1
176
     0
 90
        4
176
     0
 62
     7
176
     0
 62
   257
176
     0
 90
        1
176
     0
 90
        1
176
     0
 40
1.0
176
     0
 90
       10
176
     2
 62
     7
176
     0
 40
1.0
176
     0
 90
        1
176
     0
 90
        6
176
     0
 90
        2
176
     0
 62
     7
176
     0
 90
        5
176
     0
 90
        0
176
     0
 90
        0
176
     0
290
     0
176
     0
 90
        1
176
     0
 40
0.0
176
     0
 90
        0
176
     0
290
     0
176
     0
290
     1
176
     0
290
     1
176
     0
290
     0
176
     0
290
     0
176
     0
290
     0
176
     0
290
     0
176
     0
290
     0
176
     0
290
     0
176
     0
 90
       50
176
     0
 40
0.0
176
     0
 40
1.0
176
     0
 90
        0
176
     0
 62
    18
420
        0
176
     0
 90
       50
176
     0
 90
        3
176
     0
 62
     5
420
      255
176
     0
290
     0
176
     0
 90
       50
176
     0
 90
       50
176
     0
 90
       50
176
     0
290
     0
176
     0
 90
       50
176
     0
 62
   256
176
     0
 40
1.0
176
     0
 90
        2
176
     0
  1
strokes_ogs.tif
176
     0
290
     0
176
     0
 40
1.0
176
     0
 40
1.0
176
     0
  0
VISUALSTYLE
  5
38
102
{ACAD_REACTORS
330
2A
102
}
330
2A
100
AcDbVisualStyle
  2
Linepattern
 70
    14
177
     3
291
     1
 70
    58
 90
        2
176
     1
 90
        2
176
     1
 90
        0
176
     1
 90
        0
176
     1
 40
0.6
176
     1
 40
30.0
176
     1
 62
     7
420
 16777215
176
     1
 90
        1
176
     1
 90
        4
176
     1
 62
     7
176
     1
 62
   257
176
     1
 90
        7
176
     1
 90
        7
176
     1
 40
1.0
176
     1
 90
        8
176
     1
 62
     7
176
     1
 40
1.0
176
     1
 90
        1
176
     1
 90
        6
176
     1
 90
        2
176
     1
 62
     7
176
     1
 90
        5
176
     1
 90
        0
176
     1
 90
        0
176
     1
290
     0
176
     1
 90
        1
176
     1
 40
0.0
176
     1
 90
        0
176
     1
290
     0
176
     1
290
     1
176
     1
290
     1
176
     1
290
     0
176
     1
290
     0
176
     1
290
     0
176
     1
290
     0
176
     1
290
     0
176
     1
290
     0
176
     1
 90
       50
176
     1
 40
0.0
176
     1
 40
1.0
176
     1
 90
        0
176
     1
 62
    18
420
        0
176
     1
 90
       50
176
     1
 90
        3
176
     1
 62
     5
420
      255
176
     1
290
     0
176
     1
 90
       50
176
     1
 90
       50
176
     1
 90
       50
176
     1
290
     0
176
     1
 90
       50
176
     1
 62
   256
176
     0
 40
1.0
176
     0
 90
        2
176
     1
  1
strokes_ogs.tif
176
     1
290
     0
176
     1
 40
1.0
176
     1
 40
1.0
176
     1
  0
VISUALSTYLE
  5
3C
102
{ACAD_REACTORS
330
2A
102
}
330
2A
100
AcDbVisualStyle
  2
OverhangOff
 70
    21
177
     3
291
     1
 70
    58
 90
        2
176
     0
 90
        2
176
     0
 90
        0
176
     0
 90
        0
176
     0
 40
0.6
176
     0
 40
30.0
176
     0
 62
     7
420
 16777215
176
     0
 90
        1
176
     0
 90
        4
176
     0
 62
     7
176
     0
 62
   257
176
     0
 90
        1
176
     0
 90
        1
176
     0
 40
1.0
176
     0
 90
        9
176
     2
 62
     7
176
     0
 40
1.0
176
     0
 90
        1
176
     0
 90
        6
176
     0
 90
        2
176
     0
 62
     7
176
     0
 90
        5
176
     0
 90
        0
176
     0
 90
        0
176
     0
290
     0
176
     0
 90
        1
176
     0
 40
0.0
176
     0
 90
        0
176
     0
290
     0
176
     0
290
     1
176
     0
290
     1
176
     0
290
     0
176
     0
290
     0
176
     0
290
     0
176
     0
290
     0
176
     0
290
     0
176
     0
290
     0
176
     0
 90
       50
176
     0
 40
0.0
176
     0
 40
1.0
176
     0
 90
        0
176
     0
 62
    18
420
        0
176
     0
 90
       50
176
     0
 90
        3
176
     0
 62
     5
420
      255
176
     0
290
     0
176
     0
 90
       50
176
     0
 90
       50
176
     0
 90
       50
176
     0
290
     0
176
     0
 90
       50
176
     0
 62
   256
176
     0
 40
1.0
176
     0
 90
        2
176
     0
  1
strokes_ogs.tif
176
     0
290
     0
176
     0
 40
1.0
176
     0
 40
1.0
176
     0
  0
VISUALSTYLE
  5
33
102
{ACAD_REACTORS
330
2A
102
}
330
2A
100
AcDbVisualStyle
  2
Realistic
 70
     8
177
     3
291
     0
 70
    58
 90
        2
176
     1
 90
        3
176
     1
 90
        0
176
     1
 90
        2
176
     1
 40
0.6
176
     1
 40
30.0
176
     1
 62
     7
420
 16777215
176
     1
 90
        0
176
     1
 90
        0
176
     1
 62
     7
176
     1
 62
   257
176
     1
 90
        1
176
     1
 90
        1
176
     1
 40
1.0
176
     1
 90
        8
176
     1
 62
   257
176
     1
 40
1.0
176
     1
 90
        1
176
     1
 90
        6
176
     1
 90
        2
176
     1
 62
     7
176
     1
 90
        3
176
     1
 90
        0
176
     1
 90
        0
176
     1
290
     0
176
     1
 90
       13
176
     1
 40
0.0
176
     1
 90
        0
176
     1
290
     0
176
     1
290
     1
176
     1
290
     1
176
     1
290
     0
176
     1
290
     0
176
     1
290
     0
176
     1
290
     0
176
     1
290
     0
176
     1
290
     0
176
     1
 90
       50
176
     1
 40
0.0
176
     1
 40
1.0
176
     1
 90
        0
176
     1
 62
    18
420
        0
176
     1
 90
       50
176
     1
 90
        3
176
     1
 62
     5
420
      255
176
     1
290
     0
176
     1
 90
       50
176
     1
 90
       50
176
     1
 90
       50
176
     1
290
     0
176
     1
 90
       50
176
     1
 62
   256
176
     0
 40
1.0
176
     0
 90
        2
176
     1
  1
strokes_ogs.tif
176
     1
290
     0
176
     1
 40
1.0
176
     1
 40
1.0
176
     1
  0
VISUALSTYLE
  5
42
102
{ACAD_REACTORS
330
2A
102
}
330
2A
100
AcDbVisualStyle
  2
Shaded
 70
    27
177
     3
291
     0
 70
    58
 90
        2
176
     1
 90
        2
176
     1
 90
        1
176
     1
 90
        2
176
     1
 40
0.6
176
     1
 40
30.0
176
     1
 62
     7
420
 16777215
176
     1
 90
        0
176
     1
 90
        4
176
     1
 62
     7
176
     1
 62
   257
176
     1
 90
        1
176
     1
 90
        1
176
     1
 40
1.0
176
     1
 90
        8
176
     1
 62
   257
176
     1
 40
1.0
176
     1
 90
        1
176
     1
 90
        6
176
     1
 90
        2
176
     1
 62
     8
420
  7895160
176
     1
 90
        3
176
     1
 90
        0
176
     1
 90
        0
176
     1
290
     0
176
     1
 90
        5
176
     1
 40
0.0
176
     1
 90
        0
176
     1
290
     0
176
     1
290
     1
176
     1
290
     1
176
     1
290
     0
176
     1
290
     0
176
     1
290
     0
176
     1
290
     0
176
     1
290
     0
176
     1
290
     0
176
     1
 90
       50
176
     1
 40
0.0
176
     1
 40
1.0
176
     1
 90
        0
176
     1
 62
    18
420
        0
176
     1
 90
       50
176
     1
 90
        3
176
     1
 62
     5
420
      255
176
     1
290
     0
176
     1
 90
       50
176
     1
 90
       50
176
     1
 90
       50
176
     1
290
     0
176
     1
 90
       50
176
     1
 62
   256
176
     0
 40
1.0
176
     0
 90
        2
176
     1
  1
strokes_ogs.tif
176
     1
290
     0
176
     1
 40
1.0
176
     1
 40
1.0
176
     1
  0
VISUALSTYLE
  5
41
102
{ACAD_REACTORS
330
2A
102
}
330
2A
100
AcDbVisualStyle
  2
Shaded with edges
 70
    26
177
     3
291
     0
 70
    58
 90
        2
176
     1
 90
        2
176
     1
 90
        1
176
     1
 90
        2
176
     1
 40
0.6
176
     1
 40
30.0
176
     1
 62
     7
420
 16777215
176
     1
 90
        1
176
     1
 90
       10
176
     1
 62
     7
176
     1
 62
   257
176
     1
 90
        2
176
     1
 90
        1
176
     1
 40
1.0
176
     1
 90
        8
176
     1
 62
   257
176
     1
 40
1.0
176
     1
 90
        1
176
     1
 90
        6
176
     1
 90
        2
176
     1
 62
     7
176
     1
 90
        3
176
     1
 90
        0
176
     1
 90
        0
176
     1
290
     0
176
     1
 90
        5
176
     1
 40
0.0
176
     1
 90
        0
176
     1
290
     0
176
     1
290
     1
176
     1
290
     1
176
     1
290
     0
176
     1
290
     0
176
     1
290
     0
176
     1
290
     0
176
     1
290
     0
176
     1
290
     0
176
     1
 90
       50
176
     1
 40
0.0
176
     1
 40
1.0
176
     1
 90
        0
176
     1
 62
    18
420
        0
176
     1
 90
       50
176
     1
 90
        3
176
     1
 62
     5
420
      255
176
     1
290
     0
176
     1
 90
       50
176
     1
 90
       50
176
     1
 90
       50
176
     1
290
     0
176
     1
 90
       50
176
     1
 62
   256
176
     0
 40
1.0
176
     0
 90
        2
176
     1
  1
strokes_ogs.tif
176
     1
290
     0
176
     1
 40
1.0
176
     1
 40
1.0
176
     1
  0
VISUALSTYLE
  5
3E
102
{ACAD_REACTORS
330
2A
102
}
330
2A
100
AcDbVisualStyle
  2
Shades of Gray
 70
    23
177
     3
291
     0
 70
    58
 90
        2
176
     1
 90
        2
176
     1
 90
        3
176
     1
 90
        0
176
     1
 40
0.6
176
     1
 40
30.0
176
     1
 62
     7
420
 16777215
176
     1
 90
        2
176
     1
 90
        2
176
     1
 62
     7
176
     1
 62
     7
176
     1
 90
        1
176
     1
 90
        1
176
     1
 40
40.0
176
     1
 90
        8
176
     1
 62
     7
176
     1
 40
1.0
176
     1
 90
        1
176
     1
 90
        6
176
     1
 90
        2
176
     1
 62
     7
176
     1
 90
        3
176
     1
 90
        0
176
     1
 90
        0
176
     1
290
     0
176
     1
 90
        1
176
     1
 40
0.0
176
     1
 90
        0
176
     1
290
     0
176
     1
290
     1
176
     1
290
     1
176
     1
290
     0
176
     1
290
     0
176
     1
290
     0
176
     1
290
     0
176
     1
290
     0
176
     1
290
     0
176
     1
 90
       50
176
     1
 40
0.0
176
     1
 40
1.0
176
     1
 90
        0
176
     1
 62
    18
420
        0
176
     1
 90
       50
176
     1
 90
        3
176
     1
 62
     5
420
      255
176
     1
290
     0
176
     1
 90
       50
176
     1
 90
       50
176
     1
 90
       50
176
     1
290
     0
176
     1
 90
       50
176
     1
 62
   256
176
     0
 40
1.0
176
     0
 90
        2
176
     1
  1
strokes_ogs.tif
176
     1
290
     0
176
     1
 40
1.0
176
     1
 40
1.0
176
     1
  0
VISUALSTYLE
  5
3F
102
{ACAD_REACTORS
330
2A
102
}
330
2A
100
AcDbVisualStyle
  2
Sketchy
 70
    24
177
     3
291
     0
 70
    58
 90
        1
176
     1
 90
        2
176
     1
 90
        2
176
     1
 90
        0
176
     1
 40
0.6
176
     1
 40
30.0
176
     1
 62
     7
420
 16777215
176
     1
 90
        2
176
     1
 90
        2
176
     1
 62
     7
176
     1
 62
     7
176
     1
 90
        1
176
     1
 90
        1
176
     1
 40
40.0
176
     1
 90
       11
176
     1
 62
     7
176
     1
 40
1.0
176
     1
 90
        1
176
     1
 90
        6
176
     1
 90
        2
176
     1
 62
     7
176
     1
 90
        6
176
     1
 90
        0
176
     1
 90
        0
176
     1
290
     0
176
     1
 90
        1
176
     1
 40
0.0
176
     1
 90
        0
176
     1
290
     0
176
     1
290
     1
176
     1
290
     1
176
     1
290
     0
176
     1
290
     0
176
     1
290
     0
176
     1
290
     0
176
     1
290
     0
176
     1
290
     0
176
     1
 90
       50
176
     1
 40
0.0
176
     1
 40
1.0
176
     1
 90
        0
176
     1
 62
    18
420
        0
176
     1
 90
       50
176
     1
 90
        3
176
     1
 62
     5
420
      255
176
     1
290
     0
176
     1
 90
       50
176
     1
 90
       50
176
     1
 90
       50
176
     1
290
     0
176
     1
 90
       50
176
     1
 62
   256
176
     0
 40
1.0
176
     0
 90
        2
176
     1
  1
strokes_ogs.tif
176
     1
290
     0
176
     1
 40
1.0
176
     1
 40
1.0
176
     1
  0
VISUALSTYLE
  5
37
102
{ACAD_REACTORS
330
2A
102
}
330
2A
100
AcDbVisualStyle
  2
Thicken
 70
    13
177
     3
291
     1
 70
    58
 90
        2
176
     1
 90
        2
176
     1
 90
        0
176
     1
 90
        0
176
     1
 40
0.6
176
     1
 40
30.0
176
     1
 62
     7
420
 16777215
176
     1
 90
        1
176
     1
 90
        4
176
     1
 62
     7
176
     1
 62
   257
176
     1
 90
        1
176
     1
 90
        1
176
     1
 40
1.0
176
     1
 90
       12
176
     1
 62
     7
176
     1
 40
1.0
176
     1
 90
        1
176
     1
 90
        6
176
     1
 90
        2
176
     1
 62
     7
176
     1
 90
        5
176
     1
 90
        0
176
     1
 90
        0
176
     1
290
     0
176
     1
 90
        1
176
     1
 40
0.0
176
     1
 90
        0
176
     1
290
     0
176
     1
290
     1
176
     1
290
     1
176
     1
290
     0
176
     1
290
     0
176
     1
290
     0
176
     1
290
     0
176
     1
290
     0
176
     1
290
     0
176
     1
 90
       50
176
     1
 40
0.0
176
     1
 40
1.0
176
     1
 90
        0
176
     1
 62
    18
420
        0
176
     1
 90
       50
176
     1
 90
        3
176
     1
 62
     5
420
      255
176
     1
290
     0
176
     1
 90
       50
176
     1
 90
       50
176
     1
 90
       50
176
     1
290
     0
176
     1
 90
       50
176
     1
 62
   256
176
     0
 40
1.0
176
     0
 90
        2
176
     1
  1
strokes_ogs.tif
176
     1
290
     0
176
     1
 40
1.0
176
     1
 40
1.0
176
     1
  0
VISUALSTYLE
  5
30
102
{ACAD_REACTORS
330
2A
102
}
330
2A
100
AcDbVisualStyle
  2
Wireframe
 70
     5
177
     3
291
     0
 70
    58
 90
        0
176
     1
 90
        2
176
     1
 90
        0
176
     1
 90
        0
176
     1
 40
0.6
176
     1
 40
30.0
176
     1
 62
     7
420
 16777215
176
     1
 90
        1
176
     1
 90
        4
176
     1
 62
     7
176
     1
 62
   257
176
     1
 90
        1
176
     1
 90
        1
176
     1
 40
1.0
176
     1
 90
        0
176
     1
 62
   257
176
     1
 40
1.0
176
     1
 90
        1
176
     1
 90
        6
176
     1
 90
        2
176
     1
 62
     7
176
     1
 90
        3
176
     1
 90
        0
176
     1
 90
        0
176
     1
290
     0
176
     1
 90
        1
176
     1
 40
0.0
176
     1
 90
        0
176
     1
290
     0
176
     1
290
     1
176
     1
290
     1
176
     1
290
     0
176
     1
290
     0
176
     1
290
     0
176
     1
290
     0
176
     1
290
     0
176
     1
290
     0
176
     1
 90
       50
176
     1
 40
0.0
176
     1
 40
1.0
176
     1
 90
        0
176
     1
 62
    18
420
        0
176
     1
 90
       50
176
     1
 90
        3
176
     1
 62
     5
420
      255
176
     1
290
     0
176
     1
 90
       50
176
     1
 90
       50
176
     1
 90
       50
176
     1
290
     0
176
     1
 90
       50
176
     1
 62
   256
176
     0
 40
1.0
176
     0
 90
        2
176
     1
  1
strokes_ogs.tif
176
     1
290
     0
176
     1
 40
1.0
176
     1
 40
1.0
176
     1
  0
VISUALSTYLE
  5
40
102
{ACAD_REACTORS
330
2A
102
}
330
2A
100
AcDbVisualStyle
  2
X-Ray
 70
    25
177
     3
291
     0
 70
    58
 90
        2
176
     1
 90
        2
176
     1
 90
        1
176
     1
 90
        1
176
     1
 40
0.5
176
     1
 40
30.0
176
     1
 62
     7
420
 16777215
176
     1
 90
        1
176
     1
 90
        0
176
     1
 62
     7
176
     1
 62
   257
176
     1
 90
        1
176
     1
 90
        1
176
     1
 40
1.0
176
     1
 90
        8
176
     1
 62
     7
176
     1
 40
1.0
176
     1
 90
        1
176
     1
 90
        6
176
     1
 90
        2
176
     1
 62
     7
176
     1
 90
        3
176
     1
 90
        0
176
     1
 90
        0
176
     1
290
     0
176
     1
 90
       13
176
     1
 40
0.0
176
     1
 90
        0
176
     1
290
     0
176
     1
290
     1
176
     1
290
     1
176
     1
290
     0
176
     1
290
     0
176
     1
290
     0
176
     1
290
     0
176
     1
290
     0
176
     1
290
     0
176
     1
 90
       50
176
     1
 40
0.0
176
     1
 40
1.0
176
     1
 90
        0
176
     1
 62
    18
420
        0
176
     1
 90
       50
176
     1
 90
        3
176
     1
 62
     5
420
      255
176
     1
290
     0
176
     1
 90
       50
176
     1
 90
       50
176
     1
 90
       50
176
     1
290
     0
176
     1
 90
       50
176
     1
 62
   256
176
     0
 40
1.0
176
     0
 90
        2
176
     1
  1
strokes_ogs.tif
176
     1
290
     0
176
     1
 40
1.0
176
     1
 40
1.0
176
     1
  0
DICTIONARYVAR
  5
412
102
{ACAD_REACTORS
330
411
102
}
330
411
100
DictionaryVariables
280
     0
  1
1:1
  0
DICTIONARY
  5
3CC
102
{ACAD_REACTORS
330
3CB
102
}
330
3CB
100
AcDbDictionary
281
     1
  3
*A1
350
3CD
  0
DICTIONARY
  5
3D1
102
{ACAD_REACTORS
330
3D0
102
}
330
3D0
100
AcDbDictionary
281
     1
  3
*A1
350
3D2
  0
DICTIONARY
  5
3D6
102
{ACAD_REACTORS
330
3D5
102
}
330
3D5
100
AcDbDictionary
281
     1
  3
*A1
350
3D7
  0
DICTIONARY
  5
3DB
102
{ACAD_REACTORS
330
3DA
102
}
330
3DA
100
AcDbDictionary
281
     1
  3
*A1
350
3DC
  0
DICTIONARY
  5
3E0
102
{ACAD_REACTORS
330
3DF
102
}
330
3DF
100
AcDbDictionary
281
     1
  3
*A1
350
3E1
  0
DICTIONARY
  5
3E5
102
{ACAD_REACTORS
330
3E4
102
}
330
3E4
100
AcDbDictionary
281
     1
  3
*A1
350
3E6
  0
DICTIONARY
  5
F1
102
{ACAD_REACTORS
330
F0
102
}
330
F0
100
AcDbDictionary
281
     1
  3
*A1
350
F2
  0
DICTIONARY
  5
103
102
{ACAD_REACTORS
330
102
102
}
330
102
100
AcDbDictionary
281
     1
  3
*A1
350
104
  0
DICTIONARY
  5
114
102
{ACAD_REACTORS
330
113
102
}
330
113
100
AcDbDictionary
281
     1
  3
*A1
350
115
  0
DICTIONARY
  5
12F
102
{ACAD_REACTORS
330
12E
102
}
330
12E
100
AcDbDictionary
281
     1
  3
*A1
350
130
  0
DICTIONARY
  5
140
102
{ACAD_REACTORS
330
13F
102
}
330
13F
100
AcDbDictionary
281
     1
  3
*A1
350
141
  0
DICTIONARY
  5
151
102
{ACAD_REACTORS
330
150
102
}
330
150
100
AcDbDictionary
281
     1
  3
*A1
350
152
  0
DICTIONARY
  5
162
102
{ACAD_REACTORS
330
161
102
}
330
161
100
AcDbDictionary
281
     1
  3
*A1
350
163
  0
DICTIONARY
  5
173
102
{ACAD_REACTORS
330
172
102
}
330
172
100
AcDbDictionary
281
     1
  3
*A1
350
174
  0
DICTIONARY
  5
184
102
{ACAD_REACTORS
330
183
102
}
330
183
100
AcDbDictionary
281
     1
  3
*A1
350
185
  0
DICTIONARY
  5
195
102
{ACAD_REACTORS
330
194
102
}
330
194
100
AcDbDictionary
281
     1
  3
*A1
350
196
  0
DICTIONARY
  5
1A8
102
{ACAD_REACTORS
330
1A7
102
}
330
1A7
100
AcDbDictionary
281
     1
  3
*A1
350
1A9
  0
DICTIONARY
  5
1BA
102
{ACAD_REACTORS
330
1B9
102
}
330
1B9
100
AcDbDictionary
281
     1
  3
*A1
350
1BB
  0
DICTIONARY
  5
1D2
102
{ACAD_REACTORS
330
1D1
102
}
330
1D1
100
AcDbDictionary
281
     1
  3
*A1
350
1D3
  0
DICTIONARY
  5
1E3
102
{ACAD_REACTORS
330
1E2
102
}
330
1E2
100
AcDbDictionary
281
     1
  3
*A1
350
1E4
  0
DICTIONARY
  5
1F4
102
{ACAD_REACTORS
330
1F3
102
}
330
1F3
100
AcDbDictionary
281
     1
  3
*A1
350
1F5
  0
DICTIONARY
  5
230
102
{ACAD_REACTORS
330
22F
102
}
330
22F
100
AcDbDictionary
281
     1
  3
*A1
350
231
  0
DICTIONARY
  5
238
102
{ACAD_REACTORS
330
237
102
}
330
237
100
AcDbDictionary
281
     1
  3
*A1
350
239
  0
DICTIONARY
  5
249
102
{ACAD_REACTORS
330
248
102
}
330
248
100
AcDbDictionary
281
     1
  3
*A1
350
24A
  0
DICTIONARY
  5
25A
102
{ACAD_REACTORS
330
259
102
}
330
259
100
AcDbDictionary
281
     1
  3
*A1
350
25B
  0
DICTIONARY
  5
279
102
{ACAD_REACTORS
330
278
102
}
330
278
100
AcDbDictionary
281
     1
  3
*A1
350
27A
  0
DICTIONARY
  5
283
102
{ACAD_REACTORS
330
282
102
}
330
282
100
AcDbDictionary
281
     1
  3
*A1
350
284
  0
DICTIONARY
  5
294
102
{ACAD_REACTORS
330
293
102
}
330
293
100
AcDbDictionary
281
     1
  3
*A1
350
295
  0
DICTIONARY
  5
2A5
102
{ACAD_REACTORS
330
2A4
102
}
330
2A4
100
AcDbDictionary
281
     1
  3
*A1
350
2A6
  0
DICTIONARY
  5
2B6
102
{ACAD_REACTORS
330
2B5
102
}
330
2B5
100
AcDbDictionary
281
     1
  3
*A1
350
2B7
  0
DICTIONARY
  5
2C7
102
{ACAD_REACTORS
330
2C6
102
}
330
2C6
100
AcDbDictionary
281
     1
  3
*A1
350
2C8
  0
DICTIONARY
  5
2D8
102
{ACAD_REACTORS
330
2D7
102
}
330
2D7
100
AcDbDictionary
281
     1
  3
*A1
350
2D9
  0
DICTIONARY
  5
2E9
102
{ACAD_REACTORS
330
2E8
102
}
330
2E8
100
AcDbDictionary
281
     1
  3
*A1
350
2EA
  0
DICTIONARY
  5
2FA
102
{ACAD_REACTORS
330
2F9
102
}
330
2F9
100
AcDbDictionary
281
     1
  3
*A1
350
2FB
  0
DICTIONARY
  5
30B
102
{ACAD_REACTORS
330
30A
102
}
330
30A
100
AcDbDictionary
281
     1
  3
*A1
350
30C
  0
DICTIONARY
  5
31C
102
{ACAD_REACTORS
330
31B
102
}
330
31B
100
AcDbDictionary
281
     1
  3
*A1
350
31D
  0
DICTIONARY
  5
32D
102
{ACAD_REACTORS
330
32C
102
}
330
32C
100
AcDbDictionary
281
     1
  3
*A1
350
32E
  0
DICTIONARY
  5
33E
102
{ACAD_REACTORS
330
33D
102
}
330
33D
100
AcDbDictionary
281
     1
  3
*A1
350
33F
  0
DICTIONARY
  5
350
102
{ACAD_REACTORS
330
34F
102
}
330
34F
100
AcDbDictionary
281
     1
  3
*A1
350
351
  0
DICTIONARY
  5
361
102
{ACAD_REACTORS
330
360
102
}
330
360
100
AcDbDictionary
281
     1
  3
*A1
350
362
  0
DICTIONARY
  5
366
102
{ACAD_REACTORS
330
365
102
}
330
365
100
AcDbDictionary
281
     1
  3
*A1
350
367
  0
DICTIONARY
  5
36B
102
{ACAD_REACTORS
330
36A
102
}
330
36A
100
AcDbDictionary
281
     1
  3
*A1
350
36C
  0
DICTIONARY
  5
370
102
{ACAD_REACTORS
330
36F
102
}
330
36F
100
AcDbDictionary
281
     1
  3
*A1
350
371
  0
DICTIONARY
  5
383
102
{ACAD_REACTORS
330
382
102
}
330
382
100
AcDbDictionary
281
     1
  3
*A1
350
384
  0
DICTIONARY
  5
388
102
{ACAD_REACTORS
330
387
102
}
330
387
100
AcDbDictionary
281
     1
  3
*A1
350
389
  0
ACDB_TEXTOBJECTCONTEXTDATA_CLASS
  5
3CD
330
3CC
100
AcDbObjectContextData
 70
     4
290
     1
100
AcDbAnnotScaleObjectContextData
340
48
 70
     0
 50
0.0
 10
0.0
 20
0.0
 11
14.04066848754883
 21
325.6684875488281
  0
ACDB_TEXTOBJECTCONTEXTDATA_CLASS
  5
3D2
330
3D1
100
AcDbObjectContextData
 70
     4
290
     1
100
AcDbAnnotScaleObjectContextData
340
48
 70
     0
 50
0.0
 10
0.0
 20
0.0
 11
70.72162628173828
 21
325.6684875488281
  0
ACDB_TEXTOBJECTCONTEXTDATA_CLASS
  5
3D7
330
3D6
100
AcDbObjectContextData
 70
     4
290
     1
100
AcDbAnnotScaleObjectContextData
340
48
 70
     0
 50
0.0
 10
0.0
 20
0.0
 11
123.759391784668
 21
325.6684875488281
  0
ACDB_TEXTOBJECTCONTEXTDATA_CLASS
  5
3DC
330
3DB
100
AcDbObjectContextData
 70
     4
290
     1
100
AcDbAnnotScaleObjectContextData
340
48
 70
     0
 50
0.0
 10
0.0
 20
0.0
 11
176.1556549072266
 21
325.6684875488281
  0
ACDB_TEXTOBJECTCONTEXTDATA_CLASS
  5
3E1
330
3E0
100
AcDbObjectContextData
 70
     4
290
     1
100
AcDbAnnotScaleObjectContextData
340
48
 70
     0
 50
0.0
 10
0.0
 20
0.0
 11
70.72162628173828
 21
325.6684875488281
  0
ACDB_TEXTOBJECTCONTEXTDATA_CLASS
  5
3E6
330
3E5
100
AcDbObjectContextData
 70
     4
290
     1
100
AcDbAnnotScaleObjectContextData
340
48
 70
     0
 50
0.0
 10
0.0
 20
0.0
 11
229.6513366699219
 21
325.6684875488281
  0
ACDB_ALDIMOBJECTCONTEXTDATA_CLASS
  5
F2
330
F1
100
AcDbObjectContextData
 70
     4
290
     1
100
AcDbAnnotScaleObjectContextData
340
4B
100
AcDbDimensionObjectContextData
  2
*D4
293
     0
 10
-54547.94889831543
 20
-7541.1806640625
294
     0
140
0.0
298
     0
291
     0
 70
     0
292
     0
 71
     0
280
     0
295
     0
296
     0
297
     0
100
AcDbAlignedDimensionObjectContextData
 11
-54541.94873046875
 21
-7541.1806640625
 31
0.0
  0
ACDB_ALDIMOBJECTCONTEXTDATA_CLASS
  5
104
330
103
100
AcDbObjectContextData
 70
     4
290
     1
100
AcDbAnnotScaleObjectContextData
340
4B
100
AcDbDimensionObjectContextData
  2
*D5
293
     0
 10
-53532.44906616211
 20
-7537.91650390625
294
     0
140
0.0
298
     0
291
     0
 70
     0
292
     0
 71
     0
280
     0
295
     0
296
     0
297
     0
100
AcDbAlignedDimensionObjectContextData
 11
-53528.44906616211
 21
-7537.91650390625
 31
0.0
  0
ACDB_ALDIMOBJECTCONTEXTDATA_CLASS
  5
115
330
114
100
AcDbObjectContextData
 70
     4
290
     1
100
AcDbAnnotScaleObjectContextData
340
4B
100
AcDbDimensionObjectContextData
  2
*D6
293
     0
 10
-54581.6171875
 20
-7449.556640625
294
     0
140
0.0
298
     0
291
     0
 70
     0
292
     0
 71
     0
280
     0
295
     0
296
     0
297
     0
100
AcDbAlignedDimensionObjectContextData
 11
-54581.6171875
 21
-7506.306640625
 31
0.0
  0
ACDB_ALDIMOBJECTCONTEXTDATA_CLASS
  5
130
330
12F
100
AcDbObjectContextData
 70
     4
290
     1
100
AcDbAnnotScaleObjectContextData
340
12C
100
AcDbDimensionObjectContextData
  2
*D7
293
     0
 10
-51072.86328125
 20
-5848.691497832222
294
     0
140
0.0
298
     1
291
     0
 70
     0
292
     1
 71
     0
280
    29
295
     0
296
     0
297
     0
100
AcDbAlignedDimensionObjectContextData
 11
-51072.86328125
 21
-4918.691589414445
 31
0.0
  0
ACDB_ALDIMOBJECTCONTEXTDATA_CLASS
  5
141
330
140
100
AcDbObjectContextData
 70
     4
290
     1
100
AcDbAnnotScaleObjectContextData
340
12C
100
AcDbDimensionObjectContextData
  2
*D8
293
     0
 10
-54035.69906616211
 20
-7328.36083984375
294
     0
140
0.0
298
     1
291
     0
 70
     0
292
     1
 71
     0
280
    29
295
     0
296
     0
297
     0
100
AcDbAlignedDimensionObjectContextData
 11
-53569.44906616211
 21
-7328.36083984375
 31
0.0
  0
ACDB_ALDIMOBJECTCONTEXTDATA_CLASS
  5
152
330
151
100
AcDbObjectContextData
 70
     4
290
     1
100
AcDbAnnotScaleObjectContextData
340
12C
100
AcDbDimensionObjectContextData
  2
*D9
293
     0
 10
-54524.44906616211
 20
-7328.36083984375
294
     0
140
0.0
298
     0
291
     0
 70
     0
292
     0
 71
     0
280
     0
295
     0
296
     0
297
     0
100
AcDbAlignedDimensionObjectContextData
 11
-54501.94906616211
 21
-7328.36083984375
 31
0.0
  0
ACDB_ALDIMOBJECTCONTEXTDATA_CLASS
  5
163
330
162
100
AcDbObjectContextData
 70
     4
290
     1
100
AcDbAnnotScaleObjectContextData
340
12C
100
AcDbDimensionObjectContextData
  2
*D10
293
     0
 10
-53532.44906616211
 20
-7328.36083984375
294
     0
140
0.0
298
     0
291
     0
 70
     0
292
     0
 71
     0
280
     0
295
     0
296
     0
297
     0
100
AcDbAlignedDimensionObjectContextData
 11
-53495.44906616211
 21
-7328.36083984375
 31
0.0
  0
ACDB_ALDIMOBJECTCONTEXTDATA_CLASS
  5
174
330
173
100
AcDbObjectContextData
 70
     4
290
     1
100
AcDbAnnotScaleObjectContextData
340
12C
100
AcDbDimensionObjectContextData
  2
*D11
293
     0
 10
-51072.86328125
 20
-6813.691406249999
294
     0
140
0.0
298
     0
291
     0
 70
     0
292
     0
 71
     0
280
     0
295
     0
296
     0
297
     0
100
AcDbAlignedDimensionObjectContextData
 11
-51072.86328125
 21
-6778.691406249999
 31
0.0
  0
ACDB_ALDIMOBJECTCONTEXTDATA_CLASS
  5
185
330
184
100
AcDbObjectContextData
 70
     4
290
     1
100
AcDbAnnotScaleObjectContextData
340
12C
100
AcDbDimensionObjectContextData
  2
*D12
293
     0
 10
-51072.86328125
 20
-4848.691589414444
294
     0
140
0.0
298
     0
291
     0
 70
     0
292
     0
 71
     0
280
     0
295
     0
296
     0
297
     0
100
AcDbAlignedDimensionObjectContextData
 11
-51072.86328125
 21
-4778.691589414443
 31
0.0
  0
ACDB_ALDIMOBJECTCONTEXTDATA_CLASS
  5
196
330
195
100
AcDbObjectContextData
 70
     4
290
     1
100
AcDbAnnotScaleObjectContextData
340
12C
100
AcDbDimensionObjectContextData
  2
*D13
293
     0
 10
-51072.86328125
 20
-4138.691566091961
294
     0
140
0.0
298
     0
291
     0
 70
     0
292
     0
 71
     0
280
     0
295
     0
296
     0
297
     0
100
AcDbAlignedDimensionObjectContextData
 11
-51072.86328125
 21
-4103.691711366806
 31
0.0
  0
ACDB_ALDIMOBJECTCONTEXTDATA_CLASS
  5
1A9
330
1A8
100
AcDbObjectContextData
 70
     4
290
     1
100
AcDbAnnotScaleObjectContextData
340
12C
100
AcDbDimensionObjectContextData
  2
*D14
293
     0
 10
-52561.69906616211
 20
-7328.36083984375
294
     0
140
0.0
298
     1
291
     0
 70
     0
292
     1
 71
     0
280
    29
295
     0
296
     0
297
     0
100
AcDbAlignedDimensionObjectContextData
 11
-51627.94906616211
 21
-7328.36083984375
 31
0.0
  0
ACDB_ALDIMOBJECTCONTEXTDATA_CLASS
  5
1BB
330
1BA
100
AcDbObjectContextData
 70
     4
290
     1
100
AcDbAnnotScaleObjectContextData
340
12C
100
AcDbDimensionObjectContextData
  2
*D15
293
     0
 10
-51605.44906616211
 20
-7328.36083984375
294
     0
140
0.0
298
     0
291
     0
 70
     0
292
     0
 71
     0
280
     0
295
     0
296
     0
297
     0
100
AcDbAlignedDimensionObjectContextData
 11
-51582.94906616211
 21
-7328.36083984375
 31
0.0
  0
ACDB_ALDIMOBJECTCONTEXTDATA_CLASS
  5
1D3
330
1D2
100
AcDbObjectContextData
 70
     4
290
     1
100
AcDbAnnotScaleObjectContextData
340
12C
100
AcDbDimensionObjectContextData
  2
*D16
293
     0
 10
-50502.98046875
 20
-5476.191413533557
294
     0
140
0.0
298
     1
291
     0
 70
     0
292
     1
 71
     0
280
    29
295
     0
296
     0
297
     0
100
AcDbAlignedDimensionObjectContextData
 11
-50502.98046875
 21
-4173.691420817117
 31
0.0
  0
ACDB_ALDIMOBJECTCONTEXTDATA_CLASS
  5
1E4
330
1E3
100
AcDbObjectContextData
 70
     4
290
     1
100
AcDbAnnotScaleObjectContextData
340
12C
100
AcDbDimensionObjectContextData
  2
*D17
293
     0
 10
-50502.98046875
 20
-6813.691406249999
294
     0
140
0.0
298
     0
291
     0
 70
     0
292
     0
 71
     0
280
     0
295
     0
296
     0
297
     0
100
AcDbAlignedDimensionObjectContextData
 11
-50502.98046875
 21
-6778.691406249999
 31
0.0
  0
ACDB_ALDIMOBJECTCONTEXTDATA_CLASS
  5
1F5
330
1F4
100
AcDbObjectContextData
 70
     4
290
     1
100
AcDbAnnotScaleObjectContextData
340
12C
100
AcDbDimensionObjectContextData
  2
*D18
293
     0
 10
-50502.98046875
 20
-4138.691566091961
294
     0
140
0.0
298
     0
291
     0
 70
     0
292
     0
 71
     0
280
     0
295
     0
296
     0
297
     0
100
AcDbAlignedDimensionObjectContextData
 11
-50502.98046875
 21
-4103.691711366806
 31
0.0
  0
ACDB_TEXTOBJECTCONTEXTDATA_CLASS
  5
231
330
230
100
AcDbObjectContextData
 70
     4
290
     1
100
AcDbAnnotScaleObjectContextData
340
48
 70
     0
 50
0.0
 10
0.0
 20
0.0
 11
-53978.6901550293
 21
-6875.3447265625
  0
ACDB_ALDIMOBJECTCONTEXTDATA_CLASS
  5
239
330
238
100
AcDbObjectContextData
 70
     4
290
     1
100
AcDbAnnotScaleObjectContextData
340
12C
100
AcDbDimensionObjectContextData
  2
*D19
293
     0
 10
-51072.86328125
 20
-4476.191505115779
294
     0
140
0.0
298
     1
291
     0
 70
     0
292
     1
 71
     0
280
    29
295
     0
296
     0
297
     0
100
AcDbAlignedDimensionObjectContextData
 11
-51072.86328125
 21
-4173.691420817117
 31
0.0
  0
ACDB_ALDIMOBJECTCONTEXTDATA_CLASS
  5
24A
330
249
100
AcDbObjectContextData
 70
     4
290
     1
100
AcDbAnnotScaleObjectContextData
340
4B
100
AcDbDimensionObjectContextData
  2
*D20
293
     0
 10
-53532.44906616211
 20
-7376.36181640625
294
     0
140
0.0
298
     0
291
     0
 70
     0
292
     0
 71
     0
280
     0
295
     0
296
     0
297
     0
100
AcDbAlignedDimensionObjectContextData
 11
-53495.44906616211
 21
-7376.36181640625
 31
0.0
  0
ACDB_ALDIMOBJECTCONTEXTDATA_CLASS
  5
25B
330
25A
100
AcDbObjectContextData
 70
     4
290
     1
100
AcDbAnnotScaleObjectContextData
340
4B
100
AcDbDimensionObjectContextData
  2
*D21
293
     0
 10
-54657.921875
 20
-9009.31689453125
294
     0
140
0.0
298
     0
291
     0
 70
     0
292
     0
 71
     0
280
     0
295
     0
296
     0
297
     0
100
AcDbAlignedDimensionObjectContextData
 11
-54657.921875
 21
-8952.56689453125
 31
0.0
  0
ACDB_TEXTOBJECTCONTEXTDATA_CLASS
  5
27A
330
279
100
AcDbObjectContextData
 70
     4
290
     1
100
AcDbAnnotScaleObjectContextData
340
48
 70
     0
 50
0.0
 10
0.0
 20
0.0
 11
-53978.6901550293
 21
-4016.94091796875
  0
ACDB_ALDIMOBJECTCONTEXTDATA_CLASS
  5
284
330
283
100
AcDbObjectContextData
 70
     4
290
     1
100
AcDbAnnotScaleObjectContextData
340
4B
100
AcDbDimensionObjectContextData
  2
*D22
293
     0
 10
-54612.9453125
 20
-8994.31689453125
294
     0
140
0.0
298
     0
291
     0
 70
     0
292
     0
 71
     0
280
     0
295
     0
296
     0
297
     0
100
AcDbAlignedDimensionObjectContextData
 11
-54612.9453125
 21
-9036.06689453125
 31
0.0
  0
ACDB_ALDIMOBJECTCONTEXTDATA_CLASS
  5
295
330
294
100
AcDbObjectContextData
 70
     4
290
     1
100
AcDbAnnotScaleObjectContextData
340
4B
100
AcDbDimensionObjectContextData
  2
*D23
293
     0
 10
-54539.94906616211
 20
-8916.5107421875
294
     0
140
0.0
298
     0
291
     0
 70
     0
292
     0
 71
     0
280
     0
295
     0
296
     0
297
     0
100
AcDbAlignedDimensionObjectContextData
 11
-54578.94906616211
 21
-8916.5107421875
 31
0.0
  0
ACDB_ALDIMOBJECTCONTEXTDATA_CLASS
  5
2A6
330
2A5
100
AcDbObjectContextData
 70
     4
290
     1
100
AcDbAnnotScaleObjectContextData
340
4B
100
AcDbDimensionObjectContextData
  2
*D24
293
     0
 10
-54571.94906616211
 20
-9738.1279296875
294
     0
140
0.0
298
     0
291
     0
 70
     0
292
     0
 71
     0
280
     0
295
     0
296
     0
297
     0
100
AcDbAlignedDimensionObjectContextData
 11
-54643.94906616211
 21
-9738.1279296875
 31
0.0
  0
ACDB_ALDIMOBJECTCONTEXTDATA_CLASS
  5
2B7
330
2B6
100
AcDbObjectContextData
 70
     4
290
     1
100
AcDbAnnotScaleObjectContextData
340
4B
100
AcDbDimensionObjectContextData
  2
*D25
293
     0
 10
-54584.94906616211
 20
-9775.640625
294
     0
140
0.0
298
     1
291
     0
 70
     0
292
     1
 71
     0
280
    29
295
     0
296
     0
297
     0
100
AcDbAlignedDimensionObjectContextData
 11
-54599.94906616211
 21
-9775.640625
 31
0.0
  0
ACDB_ALDIMOBJECTCONTEXTDATA_CLASS
  5
2C8
330
2C7
100
AcDbObjectContextData
 70
     4
290
     1
100
AcDbAnnotScaleObjectContextData
340
4B
100
AcDbDimensionObjectContextData
  2
*D26
293
     0
 10
-54673.39453125
 20
-9855.77099609375
294
     0
140
0.0
298
     0
291
     0
 70
     0
292
     0
 71
     0
280
     0
295
     0
296
     0
297
     0
100
AcDbAlignedDimensionObjectContextData
 11
-54673.39453125
 21
-9799.02099609375
 31
0.0
  0
ACDB_ALDIMOBJECTCONTEXTDATA_CLASS
  5
2D9
330
2D8
100
AcDbObjectContextData
 70
     4
290
     1
100
AcDbAnnotScaleObjectContextData
340
4B
100
AcDbDimensionObjectContextData
  2
*D27
293
     0
 10
-51031.3203125
 20
-4134.691711366807
294
     0
140
0.0
298
     0
291
     0
 70
     0
292
     0
 71
     0
280
     0
295
     0
296
     0
297
     0
100
AcDbAlignedDimensionObjectContextData
 11
-51031.3203125
 21
-4095.691711366806
 31
0.0
  0
ACDB_ALDIMOBJECTCONTEXTDATA_CLASS
  5
2EA
330
2E9
100
AcDbObjectContextData
 70
     4
290
     1
100
AcDbAnnotScaleObjectContextData
340
4B
100
AcDbDimensionObjectContextData
  2
*D28
293
     0
 10
-50968.36042421467
 20
-4099.691711366806
294
     0
140
0.0
298
     0
291
     0
 70
     0
292
     0
 71
     0
280
     0
295
     0
296
     0
297
     0
100
AcDbAlignedDimensionObjectContextData
 11
-50968.36042421467
 21
-4095.691711366806
 31
0.0
  0
ACDB_ALDIMOBJECTCONTEXTDATA_CLASS
  5
2FB
330
2FA
100
AcDbObjectContextData
 70
     4
290
     1
100
AcDbAnnotScaleObjectContextData
340
4B
100
AcDbDimensionObjectContextData
  2
*D29
293
     0
 10
-51026.12415134579
 20
-4848.691589414444
294
     0
140
0.0
298
     0
291
     0
 70
     0
292
     0
 71
     0
280
     0
295
     0
296
     0
297
     0
100
AcDbAlignedDimensionObjectContextData
 11
-51026.12415134579
 21
-4918.691589414445
 31
0.0
  0
ACDB_ALDIMOBJECTCONTEXTDATA_CLASS
  5
30C
330
30B
100
AcDbObjectContextData
 70
     4
290
     1
100
AcDbAnnotScaleObjectContextData
340
4B
100
AcDbDimensionObjectContextData
  2
*D30
293
     0
 10
-51031.49905976356
 20
-6817.69140625
294
     0
140
0.0
298
     0
291
     0
 70
     0
292
     0
 71
     0
280
     0
295
     0
296
     0
297
     0
100
AcDbAlignedDimensionObjectContextData
 11
-51031.49905976356
 21
-6856.69140625
 31
0.0
  0
ACDB_ALDIMOBJECTCONTEXTDATA_CLASS
  5
31D
330
31C
100
AcDbObjectContextData
 70
     4
290
     1
100
AcDbAnnotScaleObjectContextData
340
4B
100
AcDbDimensionObjectContextData
  2
*D31
293
     0
 10
-50866.47265625
 20
-6841.19140625
294
     0
140
0.0
298
     0
291
     0
 70
     0
292
     0
 71
     0
280
     0
295
     0
296
     0
297
     0
100
AcDbAlignedDimensionObjectContextData
 11
-50866.47265625
 21
-6856.69140625
 31
0.0
  0
ACDB_ALDIMOBJECTCONTEXTDATA_CLASS
  5
32E
330
32D
100
AcDbObjectContextData
 70
     4
290
     1
100
AcDbAnnotScaleObjectContextData
340
4B
100
AcDbDimensionObjectContextData
  2
*D32
293
     0
 10
-50973.74609375
 20
-6852.69140625
294
     0
140
0.0
298
     0
291
     0
 70
     0
292
     0
 71
     0
280
     0
295
     0
296
     0
297
     0
100
AcDbAlignedDimensionObjectContextData
 11
-50973.74609375
 21
-6856.69140625
 31
0.0
  0
ACDB_ALDIMOBJECTCONTEXTDATA_CLASS
  5
33F
330
33E
100
AcDbObjectContextData
 70
     4
290
     1
100
AcDbAnnotScaleObjectContextData
340
4B
100
AcDbDimensionObjectContextData
  2
*D33
293
     0
 10
-49040.62109375
 20
-6893.9423828125
294
     0
140
0.0
298
     1
291
     0
 70
     0
292
     1
 71
     1
280
    29
295
     0
296
     0
297
     0
100
AcDbAlignedDimensionObjectContextData
 11
-49040.62109375
 21
-7134.553176247118
 31
0.0
  0
ACDB_ALDIMOBJECTCONTEXTDATA_CLASS
  5
351
330
350
100
AcDbObjectContextData
 70
     4
290
     1
100
AcDbAnnotScaleObjectContextData
340
4B
100
AcDbDimensionObjectContextData
  2
*D34
293
     0
 10
-49070.29296875
 20
-4042.171142578125
294
     0
140
0.0
298
     1
291
     0
 70
     0
292
     1
 71
     1
280
    29
295
     0
296
     0
297
     0
100
AcDbAlignedDimensionObjectContextData
 11
-49070.29296875
 21
-4103.691711366806
 31
0.0
  0
ACDB_TEXTOBJECTCONTEXTDATA_CLASS
  5
362
330
361
100
AcDbObjectContextData
 70
     4
290
     1
100
AcDbAnnotScaleObjectContextData
340
48
 70
     0
 50
0.0
 10
0.0
 20
0.0
 11
-51202.3203125
 21
-3943.82861328125
  0
ACDB_TEXTOBJECTCONTEXTDATA_CLASS
  5
367
330
366
100
AcDbObjectContextData
 70
     4
290
     1
100
AcDbAnnotScaleObjectContextData
340
48
 70
     0
 50
0.0
 10
0.0
 20
0.0
 11
-50604.76611328126
 21
-3943.82861328125
  0
ACDB_TEXTOBJECTCONTEXTDATA_CLASS
  5
36C
330
36B
100
AcDbObjectContextData
 70
     4
290
     1
100
AcDbAnnotScaleObjectContextData
340
48
 70
     0
 50
0.0
 10
0.0
 20
0.0
 11
-54745.84662628174
 21
-7588.08447265625
  0
ACDB_ALDIMOBJECTCONTEXTDATA_CLASS
  5
371
330
370
100
AcDbObjectContextData
 70
     4
290
     1
100
AcDbAnnotScaleObjectContextData
340
4B
100
AcDbDimensionObjectContextData
  2
*D35
293
     0
 10
-48963.5234375
 20
-4099.691711366806
294
     0
140
0.0
298
     0
291
     0
 70
     0
292
     0
 71
     0
280
     0
295
     0
296
     0
297
     0
100
AcDbAlignedDimensionObjectContextData
 11
-48963.5234375
 21
-4103.691711366805
 31
0.0
  0
ACDB_MTEXTOBJECTCONTEXTDATA_CLASS
  5
384
330
383
100
AcDbObjectContextData
 70
     4
290
     1
100
AcDbAnnotScaleObjectContextData
340
4B
 70
     1
 10
1.0
 20
0.0
 30
0.0
 11
-46645.3984375
 21
-3439.62841796875
 31
0.0
 40
4333.849182128906
 41
0.0
 42
0.0
 43
0.0
 71
     0
  0
ACDB_HATCHSCALECONTEXTDATA_CLASS
  5
389
330
388
100
AcDbObjectContextData
 70
     4
290
     1
100
AcDbAnnotScaleObjectContextData
340
4D
100
AcDbHatchObjectContextData
 78
     3
 53
90.0
 43
0.0
 44
0.0
 45
-480.0
 46
0.0000000000000294
 79
     0
 53
90.0
 43
160.0
 44
80.0
 45
-480.0
 46
0.0000000000000294
 79
     2
 49
160.0
 49
-160.0
 53
90.0
 43
320.0
 44
80.0
 45
-480.0
 46
0.0000000000000294
 79
     2
 49
160.0
 49
-160.0
 40
10.0
 10
1.0
 20
0.0
 30
0.0
 90
        0
  0
ENDSEC
  0
EOF
